<?xml version="1.0" standalone="no"?>
<!DOCTYPE svg PUBLIC "-//W3C//DTD SVG 1.1//EN" "http://www.w3.org/Graphics/SVG/1.1/DTD/svg11.dtd" >
<!--
2013-9-30: Created.
-->
<svg>
<metadata>
Created by iconfont
</metadata>
<defs>

<font id="iconfont" horiz-adv-x="1024" >
  <font-face
    font-family="iconfont"
    font-weight="500"
    font-stretch="normal"
    units-per-em="1024"
    ascent="896"
    descent="-128"
  />
    <missing-glyph />
    
    <glyph glyph-name="anniu" unicode="&#59387;" d="M329.4 435.5c10 2.3 16.3 12.2 14.1 22.3-4.7 21.1-5.5 42.7-2.1 64.3 14.6 94.2 103.1 159.1 197.4 144.5 22.2-3.4 43.2-11 62.3-22.4 8.9-5.3 20.3-2.4 25.5 6.4 5.3 8.8 2.4 20.3-6.4 25.6-23.3 13.9-48.7 23.1-75.7 27.3-114.5 17.7-222.2-61-239.9-175.6-4-26.2-3.2-52.5 2.6-78.2 1.9-8.7 9.6-14.6 18.2-14.6 1.3-0.1 2.7 0.1 4 0.4zM847.9 296.6c0 26.6-10.5 50.1-28 66.4 17.6 40.7 27.5 85.5 27.5 132.7 0 184.8-150.3 335.1-335.1 335.1S177.2 680.5 177.2 495.7c0-110.7 54.1-208.8 137-269.9 0.6-3.3 1.3-6.6 2.3-9.9 3.2-10.8 7.5-20.4 13-28.8 30.1-45.8 64.1-97.7 97.9-148.3 34.2-51.2 83.8-83.1 147.2-94.7 8-1.4 15.3-2.4 22.3-3.3 3.4-0.5 6.8-0.9 10.2-1.4 2.7-0.4 5.3-0.6 8-0.6h37.8c3 0 6 0.2 8.9 0.7 3.3 0.5 6.7 1.1 10 1.6 5.7 0.9 11.5 1.8 17.2 2.8 80.2 13.8 140.7 74.1 154.3 153.7 2.8 15.9 4.2 32 4.3 47.7 0.2 59.7 0.2 67.2 0.2 91.4 0.1 12.3 0.1 29.1 0.1 59.9z m-614.8 199c0 154.2 125 279.2 279.3 279.2 154.2 0 279.2-125 279.2-279.2 0-39.1-8.2-76.3-22.7-110.1-2.6 0.2-5.2 0.4-7.9 0.4-8.1 0-16-1.1-23.5-3.2-8.7 8.2-19.1 14.7-30.8 18.7-1.9 0.6-3.9 1.2-5.8 1.7 9.2 18.6 15.9 38.8 19.2 60.4 7.2 46.4-1 92.7-23.7 133.7-5 9-16.3 12.3-25.3 7.3-9-5-12.3-16.3-7.3-25.3 18.7-33.8 25.4-71.8 19.5-110-3.7-24.1-12.4-46.2-24.7-65.5-1.1-0.3-2.3-0.4-3.3-0.7-7.7 7-16.9 12.8-27.4 17.3-8 4.2-17 6.5-26.2 6.5h-1.9v65c0 45.4-30.1 80.6-75 87.7-4.2 0.7-8.4 1-12.5 1-43.9 0-82.4-35.3-85.9-78.6-0.4-5.6-0.4-10.2-0.4-14V346c-17.4 10-33.1 22.9-46.2 38.6-6.6 7.9-18.3 8.9-26.2 2.3-7.9-6.6-8.9-18.3-2.3-26.2 9.1-10.9 19.3-20.6 30.2-29.3-22.6-5.8-42.5-20.2-54.8-40.5-0.5-0.8-0.8-1.6-1.3-2.4-56.8 51.1-92.3 125-92.3 207.1z m558.8-350.2c0-12.8-1.3-25.9-3.5-38.6-9.6-56.2-52.1-98.3-108.5-108-8.9-1.5-17.8-2.8-26.8-4.3h-37.8c-10.1 1.5-20.4 2.6-30.5 4.4-46.5 8.5-84.3 31-110.8 70.7-32.8 49.2-65.3 98.5-97.7 147.9-2.7 4.2-4.7 9-6.1 13.8-6.1 20.9 6.2 42.4 26.8 46.4 3 0.6 5.9 0.9 8.6 0.9 12.5 0 23.1-5.6 31.3-16.2 13.6-17.6 26.4-35.7 39.6-53.6l4.2-5.7c0.3 0.2 0.7 0.3 1.1 0.4v5 279.2c0 3.2 0 6.3 0.2 9.5 1.2 14.7 15.6 27.2 30.2 27.2 1.3 0 2.6-0.1 3.9-0.3 17.4-2.7 27.8-14.8 27.8-32.5 0-49.7 0-132.9 0.1-182.6 0-2.6 0.2-5.3 0.9-7.7 1.3-4 4.3-6.2 8.6-6.5h0.9c4.1 0 7.2 2.1 8.8 5.7 1 2.3 1.1 5.1 1.1 7.7v22.5 6.6c0 11.2 3.8 21 13.3 27.6 3.5 2.4 7.7 3.9 11.6 5.8h12.6c0.5-0.3 0.8-0.7 1.3-0.9 16.3-5.6 23.9-16.2 23.9-33.4v-22.2 16.4-22.2c0-1.6-0.1-3.2 0.1-4.7 0.7-5.4 4.8-8.9 10-8.9h1c5.5 0.5 8.7 4.2 9 11.1v0.2 1.2 10.6c0.2 7.3 2 14.2 6.7 20.2 6.2 7.8 15.2 12.1 24.6 12.1 3.4 0 6.9-0.6 10.2-1.7 12.9-4.4 21.2-17 21.2-31.9v-28c0-1.9 0-3.9 0.2-5.8 0.6-5.1 3.9-7.7 8.6-8.6 0.5-0.1 1-0.1 1.5-0.1 3.7 0 7.7 2.6 8.9 6.3 0.8 2.4 1 5.1 1 7.7V294v-11.3s0.1 3.4 0.1 13.2c0 5.4 1 11.3 3.2 16.3 4.7 11.1 16 17.8 27.7 17.8 2.2 0 4.3-0.2 6.4-0.7 15.1-3.3 24.6-16.1 24.6-32.7 0-90.3 0.1-60.8-0.1-151.2z"  horiz-adv-x="1024" />

    
    <glyph glyph-name="guandao" unicode="&#58883;" d="M928.2 64.5V384.6c0 70.7-57.3 128-128 128h-256v64h-64v-64H352V704.7H95.9v-320.1c0-70.7 57.3-128 128-128h256v-64h64v64h128v-192.1h256.3zM31.9 800.7H416v-64H31.9zM608.1 32.5h384.1v-64H608.1z"  horiz-adv-x="1024" />

    
    <glyph glyph-name="anniuguanli" unicode="&#58891;" d="M0-128V896h1170.285714v-1024H0zM1024 749.714286H146.285714v-731.428572h877.714286V749.714286zM534.747429 602.624l269.019428-195.876571-22.747428-22.747429 22.747428-22.747429-269.019428-195.876571-95.085715 95.085714L636.342857 384 439.734857 507.538286z"  horiz-adv-x="1170" />

    
    <glyph glyph-name="B" unicode="&#59146;" d="M139.88352 475.84256a33.14176 33.14176 0 0 0-10.63424 1.75616 34.64192 34.64192 0 0 0-21.43232 43.57632C164.7104 696.3712 324.49536 814.08 505.4208 814.08c179.968 0 339.4816-116.89472 396.93824-290.87744a34.65728 34.65728 0 0 0-21.21728-43.68896 33.6128 33.6128 0 0 0-42.79296 21.66272c-48.18432 145.92-181.98016 243.94752-332.928 243.94752-151.75168 0-285.7728-98.71872-333.48608-245.64224a33.85856 33.85856 0 0 0-32.0512-23.63904zM505.4208-40.96c-185.61024 0-346.624 121.66656-400.67072 302.75584a34.60608 34.60608 0 0 0 22.46144 43.008 33.67424 33.67424 0 0 0 42.14784-22.9376c45.32736-151.8592 180.3776-253.89056 336.06144-253.89056 155.008 0 293.65248 105.93792 337.14688 257.62304a33.68448 33.68448 0 0 0 41.9072 23.40864 34.60096 34.60096 0 0 0 22.92224-42.76736c-51.84512-180.87424-217.16992-307.2-401.97632-307.2z m-44.8256 250.56768a33.55648 33.55648 0 0 0-31.744 22.73792l-67.584 190.52032-48.04608-57.96864a33.47968 33.47968 0 0 0-25.78432-12.2112H59.392a34.4832 34.4832 0 0 0 0 68.95616h212.35712l75.61216 91.22304a33.41312 33.41312 0 0 0 31.744 11.66848 33.97632 33.97632 0 0 0 25.79456-22.20032l64.79872-182.67648 60.60032 91.92448a33.4848 33.4848 0 0 0 31.744 15.02208 33.90464 33.90464 0 0 0 27.7504-21.76512l16.18944-42.46528 34.17088 51.11808a33.5872 33.5872 0 0 0 27.89888 15.04256H954.368a34.4832 34.4832 0 0 0 0-68.95616h-268.4928l-60.24192-90.112a33.47456 33.47456 0 0 0-59.392 6.92736l-16.00512 41.984-61.62944-93.53728a33.57696 33.57696 0 0 0-28.01152-15.232z"  horiz-adv-x="1024" />

    
    <glyph glyph-name="yewei" unicode="&#59272;" d="M248.832 120.832c13.312-13.312 34.816-13.312 48.128 0l44.373333 44.373333 44.032-44.032c13.312-13.312 34.816-13.312 48.128 0l44.373334 44.032 44.032-44.032c13.312-13.312 34.816-13.312 48.128 0l44.373333 44.032 44.032-44.032c6.826667-6.826667 15.36-10.24 24.234667-10.24s17.408 3.413333 24.234666 9.898667l68.266667 68.266667a33.9968 33.9968 0 1 1-48.128 48.128L682.666667 193.194667l-44.032 44.032a33.9968 33.9968 0 0 1-48.128 0L546.133333 193.194667l-44.032 44.032a33.9968 33.9968 0 0 1-48.128 0L409.6 193.194667l-44.032 44.032a33.9968 33.9968 0 0 1-48.128 0L273.066667 193.194667 229.034667 237.226667a33.9968 33.9968 0 1 1-48.128-48.128l67.925333-68.266667z m0 204.8c13.312-13.312 34.816-13.312 48.128 0l44.373333 44.373333 44.032-44.032c13.312-13.312 34.816-13.312 48.128 0l44.373334 44.032 44.032-44.032c13.312-13.312 34.816-13.312 48.128 0l44.373333 44.032 44.032-44.032c6.826667-6.826667 15.36-10.24 24.234667-10.24s17.408 3.413333 24.234666 9.898667l68.266667 68.266667a33.9968 33.9968 0 1 1-48.128 48.128L682.666667 397.994667l-44.032 44.032a33.9968 33.9968 0 0 1-48.128 0L546.133333 397.994667l-44.032 44.032a33.9968 33.9968 0 0 1-48.128 0L409.6 397.994667l-44.032 44.032a33.9968 33.9968 0 0 1-48.128 0L273.066667 397.994667 229.034667 442.026667a33.9968 33.9968 0 1 1-48.128-48.128l67.925333-68.266667zM989.866667 657.066667V725.333333h-102.4V793.6h-68.266667v-785.066667H136.533333V793.6H68.266667v-853.333333h921.6v68.266666h-102.4v170.666667h68.266666v68.266667h-68.266666v170.666666h102.4v68.266667h-102.4V657.066667h102.4z"  horiz-adv-x="1024" />

    
    <glyph glyph-name="time" unicode="&#58966;" d="M857.034752 731.594752C764.735488 823.894016 642.01728 874.725376 511.488 874.725376c-130.531328 0-253.247488-50.83136-345.546752-143.130624S22.810624 516.579328 22.810624 386.048c0-130.52928 50.83136-253.247488 143.130624-345.546752s215.015424-143.130624 345.546752-143.130624c130.52928 0 253.247488 50.83136 345.546752 143.130624S1000.165376 255.51872 1000.165376 386.048c0 130.531328-50.83136 253.247488-143.130624 345.546752zM511.488-57.716736c-244.692992 0-443.764736 199.071744-443.764736 443.764736S266.795008 829.812736 511.488 829.812736 955.252736 630.740992 955.252736 386.048 756.180992-57.716736 511.488-57.716736zM500.641792 652.460032h-44.91264v-322.17088h322.17088v44.91264h-277.25824z"  horiz-adv-x="1024" />

    
    <glyph glyph-name="shijian" unicode="&#58911;" d="M544.6-6c-196.4 0-360 153.4-372.5 349.2-1.8 28.7 20 53.5 48.7 55.3 29 1.7 53.5-20 55.3-48.7 9-141.1 127-251.7 268.6-251.7 148.4 0 269.1 120.7 269.1 269.1S693 636.4 544.6 636.4c-56.8 0-111.1-17.5-157-50.5-23.3-16.8-55.9-11.5-72.7 11.8-16.8 23.3-11.5 55.9 11.8 72.7 63.8 45.9 139.1 70.2 217.9 70.2 205.8 0 373.3-167.5 373.3-373.3S750.4-6 544.6-6zM498.1 255.8c-28.8 0-52.1 23.3-52.1 52.1V478.6c0 28.8 23.3 52.1 52.1 52.1s52.1-23.3 52.1-52.1v-170.7c0-28.8-23.3-52.1-52.1-52.1zM668.9 255.8H498.1c-28.8 0-52.1 23.3-52.1 52.1s23.3 52.1 52.1 52.1h170.7c28.8 0 52.1-23.3 52.1-52.1s-23.3-52.1-52-52.1z"  horiz-adv-x="1024" />

    
    <glyph glyph-name="kaideng" unicode="&#58885;" d="M512 896C229.668571 896 0 666.331429 0 384c0-282.331429 229.668571-512 512-512 282.331429 0 512 229.668571 512 512C1024 666.331429 794.331429 896 512 896zM403.748571 15.36l38.034286 307.2L292.571429 322.56 620.251429 752.64l-38.034286-307.2L731.428571 445.44 403.748571 15.36z"  horiz-adv-x="1024" />

    
    <glyph glyph-name="gongxiangtubiaozhuangtaileicaozuolei43" unicode="&#58972;" d="M832 896 0 896l0-128 0-64 0-64 0-64 0-64 0-64 0-64 0-64 0-64 0-64 0-64 0-64 0-128 320 0 0 64L192 0 192 384l128 0L320 448 192 448 192 832l448 0 0-64 0-64 0-64 0-64 64 0 64 0 64 0L832 896 832 896zM704 768 704 832l64 0 0-64L704 768 704 768zM64 768 64 832l64 0 0-64L64 768 64 768zM704 640 704 704l64 0 0-64L704 640 704 640zM64 640 64 704l64 0 0-64L64 640 64 640zM64 512 64 576l64 0 0-64L64 512 64 512zM64 384 64 448l64 0 0-64L64 384 64 384zM64 256 64 320l64 0 0-64L64 256 64 256zM64 128l0 64 64 0 0-64L64 128 64 128zM64 0l0 64 64 0 0-64L64 0 64 0zM576 448l0-128L448 320 448 448 576 448M640 512 384 512l0-256 256 0L640 512 640 512zM896 448l0-128-128 0L768 448 896 448M960 512l-256 0 0-256 256 0L960 512 960 512zM576 128l0-128L448 0l0 128L576 128M640 192 384 192l0-256 256 0L640 192 640 192zM896 128l0-128-128 0 0 128L896 128M960 192l-256 0 0-256 256 0L960 192 960 192z"  horiz-adv-x="1024" />

    
    <glyph glyph-name="xitongzhuangtai" unicode="&#58946;" d="M959.825022 704.060283C959.825022 774.7521 902.517291 832.059831 831.825474 832.059831H191.939717C121.2479 832.059831 63.940169 774.7521 63.940169 704.060283v-639.885757C63.940169-6.517291 121.2479-63.825022 191.939717-63.825022h639.885757c70.691817 0 127.999548 57.307731 127.999548 127.999548V704.060283zM146.715595 749.33498a63.839021 63.839021 0 0 0 45.372232 18.784682h639.824346A64.037705 64.037705 0 0 0 895.884854 703.998871V415.906867s0.0289 0 0 0h-50.527184l-54.764574 54.710387a31.970084 31.970084 0 0 1-52.933067-12.506263L698.078535 339.323162l-93.482694 186.965389a31.970084 31.970084 0 0 1-58.279477-2.423947l-93.269561-233.168483-102.307883 358.086621a31.970084 31.970084 0 0 1-59.330697 5.519807l-119.264671-238.269247L127.880338 415.906867V703.998871A63.777609 63.777609 0 0 0 146.715595 749.33498z m730.43515-730.536299a63.456102 63.456102 0 0 0-45.253022-18.67631H192.087827c-17.112123 0-33.270563 6.574639-45.372232 18.67631S127.880338 46.889006 127.880338 64.001129V351.966698l64.135241 0.180622a32.024271 32.024271 0 0 1 28.538267 17.668439l91.261045 182.395653L417.236696 183.218838a31.977309 31.977309 0 0 1 29.112645-23.144896q0.823636-0.043349 1.64366-0.043349a31.973697 31.973697 0 0 1 29.676186 20.095998l101.560108 253.900269 96.163124-192.322635a31.970084 31.970084 0 0 1 58.926104 4.186816l47.651681 142.951433 27.552072-27.523172a31.970084 31.970084 0 0 1 22.60303-9.352604H895.884854c0.0289 0 0 0 0 0v-287.965569a63.398303 63.398303 0 0 0-18.719659-45.209673z"  horiz-adv-x="1024" />

    
    <glyph glyph-name="chaolianjie" unicode="&#59106;" d="M477.934459 565.513406A50.844091 50.844091 0 0 0 406.752731 637.203575L512 743.467726a254.220457 254.220457 0 0 0 359.467726-359.467726L762.66137 277.227408a50.844091 50.844091 0 1 0-71.690168 71.690169l106.772591 106.772592a152.532274 152.532274 0 0 1-215.578947 215.578947z m70.164846-361.501489A50.844091 50.844091 0 1 0 619.789474 133.33863l-107.281033-107.281033A254.220457 254.220457 0 0 0 152.532274 384L259.813307 489.247269a50.844091 50.844091 0 1 0 72.19861-69.656405l-107.789474-107.281033a152.532274 152.532274 0 0 1 215.578947-215.578947z m-126.601788 16.77855a50.844091 50.844091 0 1 0-71.690168 71.690169l251.678252 251.678252a50.844091 50.844091 0 0 0 71.690169-71.690169z"  horiz-adv-x="1024" />

    
    <glyph glyph-name="kaiguananniu" unicode="&#58987;" d="M755.712 588.8H268.288a243.712 243.712 0 0 1 0-487.424h487.424a243.712 243.712 0 0 1 0 487.424z m-487.424-436.224A195.072 195.072 0 1 0 460.8 347.648a195.072 195.072 0 0 0-192.512-195.072z"  horiz-adv-x="1024" />

    
    <glyph glyph-name="kaiguan" unicode="&#60534;" d="M928 800H96c-35.296 0-64-28.704-64-64v-704c0-35.296 28.704-64 64-64h832c35.296 0 64 28.704 64 64V736c0 35.296-28.704 64-64 64zM96 32V736h832l0.064-704H96zM832 704H192c-35.296 0-64-28.704-64-64v-512c0-35.296 28.704-64 64-64h640c35.296 0 64 28.704 64 64V640c0 35.296-28.704 64-64 64zM192 128V640h640l0.064-512H192zM672 608H352a32 32 0 0 1 0-64h320a32 32 0 1 1 0 64z"  horiz-adv-x="1024" />

    
    <glyph glyph-name="ziyuanxhdpi" unicode="&#58929;" d="M907.271587 896H116.728413a116.728413 116.728413 0 0 1-116.728413-116.728413v-790.543174a116.728413 116.728413 0 0 1 116.728413-116.728413h790.543174a116.728413 116.728413 0 0 1 116.728413 116.728413V779.271587a116.728413 116.728413 0 0 1-116.728413 116.728413zM253.008834 659.333143h517.982332a32.975777 32.975777 0 1 0 0-65.659732H253.008834a32.975777 32.975777 0 0 0 0 65.659732z m194.644629-603.777714H250.090624a29.182103 29.182103 0 0 0 0 59.823311h197.562839z m0 181.804503H250.090624a29.182103 29.182103 0 0 0 0 59.823311h197.562839z m0 181.512681H250.090624a29.182103 29.182103 0 0 0 0 59.823312h197.562839z m342.889712-374.698204a24.804788 24.804788 0 0 0-10.213736-2.334569 23.637504 23.637504 0 0 0-21.302936 13.423768l-34.14306 70.328868 42.60587 20.719294 34.143061-70.62069a23.345683 23.345683 0 0 0-11.089199-31.516671z m-142.408664 114.977486a156.707894 156.707894 0 1 0 156.416073 156.707894 156.707894 156.707894 0 0 0-156.416073-156.707894z m0 272.269023a116.728413 116.728413 0 1 1 116.728413-116.728413 116.728413 116.728413 0 0 1-116.728413 116.728413z"  horiz-adv-x="1024" />

    
    <glyph glyph-name="jurassic_process" unicode="&#59076;" d="M960 416H615.8L512 519.8 408.2 416H128V672h160v-96h640V832H288v-96H64v-384h344.2L512 248.20000000000005 615.8 352H896v-256H768v96H128v-256h640v96h192V416zM352 768h512v-128H352V768z m352-768H192V128h512v-128z"  horiz-adv-x="1024" />

    
    <glyph glyph-name="jurassic_process-list" unicode="&#59077;" d="M64 832v-896h896V832H64z m831.9-831.9H128.1V767.9h767.7v-767.8zM330.3 52.60000000000002h363.5V236.5H330.3v-58.4h-73.8V353.4h76v-59.2h359.2v57.7h141.2V655.5H693.7v59.9H330.3v-183.9h363.5v59.9h74.9v-175.3h-77.1v57.7H332.4v-56.3H192.3v-303.6h138v-61.3z m299.3 543.1H394.4v55.6h235.2v-55.6zM394.4 172.29999999999995h235.2v-55.6H394.4v55.6z"  horiz-adv-x="1024" />

    
    <glyph glyph-name="zhishideng" unicode="&#58940;" d="M226.1 102.7V290.8c0 156.9 128.4 285.3 285.3 285.3s285.3-128.4 285.3-285.3v-188.1c0-14.3-11.6-25.9-25.9-25.9H252c-14.3 0-25.9 11.6-25.9 25.9zM770.7 54.1H252c-26.8 0-48.6 21.8-48.6 48.6V290.8c0 169.8 138.2 308 308 308s308-138.2 308-308v-188.1c-0.1-26.8-21.9-48.6-48.7-48.6zM511.3 553.4c-144.8 0-262.6-117.8-262.6-262.6v-188.1c0-1.8 1.5-3.2 3.2-3.2h518.7c1.8 0 3.2 1.5 3.2 3.2V290.8c0.1 144.8-117.7 262.6-262.5 262.6zM835.5-43.2H187.2c-12.5 0-22.7 10.2-22.7 22.7s10.2 22.7 22.7 22.7h648.4c12.5 0 22.7-10.2 22.7-22.7-0.1-12.5-10.3-22.7-22.8-22.7zM511.3 631.1c-12.5 0-22.7 10.2-22.7 22.7V809.4c0 12.5 10.2 22.7 22.7 22.7S534 821.9 534 809.4v-155.6c0-12.5-10.1-22.7-22.7-22.7zM281.1 631.1c-5.8 0-11.6 2.2-16 6.6l-110 110c-8.9 8.9-8.9 23.2 0 32.1 8.9 8.9 23.2 8.9 32.1 0l110-110c8.9-8.9 8.9-23.2 0-32.1-4.5-4.3-10.3-6.6-16.1-6.6zM741.6 631.1c-5.8 0-11.6 2.2-16 6.6-8.9 8.9-8.9 23.2 0 32.1l110 110c8.9 8.9 23.2 8.9 32.1 0 8.9-8.9 8.9-23.2 0-32.1l-110-110c-4.5-4.3-10.3-6.6-16.1-6.6z"  horiz-adv-x="1024" />

    
    <glyph glyph-name="diandengpao" unicode="&#59069;" d="M632 8H392c-4.4 0-8-3.6-8-8v-32c0-17.7 14.3-32 32-32h192c17.7 0 32 14.3 32 32v32c0 4.4-3.6 8-8 8zM512 832c-181.1 0-328-146.9-328-328 0-121.4 66-227.4 164-284.1V104c0-17.7 14.3-32 32-32h264c17.7 0 32 14.3 32 32V219.9c98 56.7 164 162.7 164 284.1 0 181.1-146.9 328-328 328z m127.9-549.8L604 261.4V144H420V261.4l-35.9 20.8C305.4 327.7 256 411.5 256 504c0 141.4 114.6 256 256 256s256-114.6 256-256c0-92.5-49.4-176.3-128.1-221.8z"  horiz-adv-x="1024" />

    
    <glyph glyph-name="right" unicode="&#59371;" d="M765.7 409.2L314.9 761.3c-5.3 4.1-12.9 0.4-12.9-6.3v-77.3c0-4.9 2.3-9.6 6.1-12.6l360-281.1-360-281.1c-3.9-3-6.1-7.7-6.1-12.6V13c0-6.7 7.7-10.4 12.9-6.3l450.8 352.1c16.4 12.8 16.4 37.6 0 50.4z"  horiz-adv-x="1024" />

    
    <glyph glyph-name="left" unicode="&#59372;" d="M724 677.7V755c0 6.7-7.7 10.4-12.9 6.3L260.3 409.2c-16.4-12.8-16.4-37.5 0-50.3l450.8-352.1c5.3-4.1 12.9-0.4 12.9 6.3v77.3c0 4.9-2.3 9.6-6.1 12.6l-360 281 360 281.1c3.8 3 6.1 7.7 6.1 12.6z"  horiz-adv-x="1024" />

    
    <glyph glyph-name="up" unicode="&#59373;" d="M890.5 140.7L537.9 626.8c-12.8 17.6-39 17.6-51.7 0L133.5 140.7c-3.8-5.3-0.1-12.7 6.5-12.7h75c5.1 0 9.9 2.5 12.9 6.6L512 526.2l284.1-391.6c3-4.1 7.8-6.6 12.9-6.6h75c6.5 0 10.3 7.4 6.5 12.7z"  horiz-adv-x="1024" />

    
    <glyph glyph-name="down" unicode="&#59374;" d="M884 640h-75c-5.1 0-9.9-2.5-12.9-6.6L512 241.8 227.9 633.4c-3 4.1-7.8 6.6-12.9 6.6h-75c-6.5 0-10.3-7.4-6.5-12.7l352.6-486.1c12.8-17.6 39-17.6 51.7 0l352.6 486.1c3.9 5.3 0.1 12.7-6.4 12.7z"  horiz-adv-x="1024" />

    
    <glyph glyph-name="swap" unicode="&#59390;" d="M847.9 304H152c-4.4 0-8-3.6-8-8v-60c0-4.4 3.6-8 8-8h605.2L612.9 45c-4.1-5.2-0.4-13 6.3-13h72.5c4.9 0 9.5 2.2 12.6 6.1l168.8 214.1c16.5 21 1.6 51.8-25.2 51.8zM872 540H266.8l144.3 183c4.1 5.2 0.4 13-6.3 13h-72.5c-4.9 0-9.5-2.2-12.6-6.1L150.9 515.8c-16.5-21-1.6-51.8 25.1-51.8h696c4.4 0 8 3.6 8 8v60c0 4.4-3.6 8-8 8z"  horiz-adv-x="1024" />

    
    <glyph glyph-name="WIFI" unicode="&#59244;" d="M0 543.168l93.12-98.752c231.296 245.44 606.464 245.44 837.76 0L1024 543.168C741.44 842.944 283.008 842.944 0 543.168z m372.352-395.008L512 0l139.648 148.16c-76.8 81.92-202.048 81.92-279.296 0zM186.24 345.6l93.12-98.752c128.448 136.32 336.96 136.32 465.408 0L837.824 345.6c-179.648 190.592-471.488 190.592-651.648 0z"  horiz-adv-x="1024" />

    
    <glyph glyph-name="caret-down" unicode="&#59628;" d="M840.4 596H183.6c-19.7 0-30.7-20.8-18.5-35l328.4-380.8c9.4-10.9 27.5-10.9 37 0L858.9 561c12.2 14.2 1.2 35-18.5 35z"  horiz-adv-x="1024" />

    
    <glyph glyph-name="caret-up" unicode="&#59630;" d="M858.9 207L530.5 587.8c-9.4 10.9-27.5 10.9-37 0L165.1 207c-12.2-14.2-1.2-35 18.5-35h656.8c19.7 0 30.7 20.8 18.5 35z"  horiz-adv-x="1024" />

    
    <glyph glyph-name="delete" unicode="&#58912;" d="M512 338.776006l249.203712-249.203712c12.491499-12.491499 32.730449-12.489452 45.221948 0.002047s12.493545 32.730449 0.002047 45.221948L557.223994 384l249.203712 249.203712c12.491499 12.491499 12.489452 32.730449-0.002047 45.221948s-32.730449 12.493545-45.221948 0.002047L512 429.223994 262.796288 678.427706c-12.491499 12.491499-32.729425 12.490475-45.220924-0.001023-6.246261-6.246261-9.370415-14.429641-9.370415-22.610974s3.121084-16.365736 9.367345-22.610974L466.774983 384 217.572294 134.796288c-6.246261-6.246261-9.367345-14.428617-9.367345-22.610974s3.125177-16.365736 9.370415-22.610974c12.491499-12.491499 32.729425-12.493545 45.220924-0.002047L512 338.776006z"  horiz-adv-x="1024" />

    
    <glyph glyph-name="cc-delete" unicode="&#59081;" d="M482.334 566.515c0 17.638 14.436 31.84 31.807 31.84l0 0c17.339 0 31.776-14.45 31.776-31.84l0-482.866c0-17.638-14.436-31.809-31.776-31.809l0 0c-17.619 0-31.807 14.418-31.807 31.809l0 482.866zM927.373 688.4l0 5.507c-1.391 16.338-14.989 29.086-31.683 29.086l0 0-170.96 0 0 40.165c0 31.098-27.882 55.574-63.613 55.574l-294.231 0c-35.7 0-63.612-24.475-63.612-55.574l0-39.916-176.094 0c-17.618 0-31.806-14.202-31.806-31.84s14.187-31.84 31.806-31.84l67.012 0 0-671.403c0-34.285 28.623-62.196 63.582-62.196l512.948 0c34.958 0 63.582 27.911 63.582 62.196l0 671.156 61.385 0c16.693-0.002 30.292 12.747 31.683 29.085l0 0zM332.391 566.515c0 17.638 14.187 31.84 31.806 31.84l0 0c17.618 0 31.775-14.45 31.775-31.84l0-482.866c0-17.638-14.404-31.809-31.775-31.809l0 0c-17.619 0-31.806 14.418-31.806 31.809l0 482.866zM632.03 566.515c0 17.638 14.435 31.84 31.806 31.84l0 0c17.589 0 31.776-14.45 31.776-31.84l0-482.866c0-17.638-14.434-31.809-31.776-31.809l0 0c-17.372 0-31.806 14.418-31.806 31.809l0 482.866zM366.885 754.834l294.231 0 0-31.84-294.231 0 0 31.84zM736.969-10.605c0 0-411.44-1.486-446.399-1.486-34.989 0-33.011 35.988-33.011 35.988l0 604.814c0 36.73 31.065 30.602 31.065 30.602l444.421 0c0 0 37.433 2.228 37.433-30.602 0-32.8 0.494-577.121 0.494-607.971-0.001-30.633-34.002-31.345-34.002-31.345l0 0z"  horiz-adv-x="1024" />

    
    <glyph glyph-name="edit" unicode="&#59032;" d="M770.204 175.886c0-79.544-64.535-144.079-144.079-144.079L209.896 31.807c-79.543 0-144.079 64.535-144.079 144.079L65.817 592.114c0 79.544 64.536 144.079 144.079 144.079l416.229 0c20.011 0 40.022-4.002 58.532-12.507 4.502-2.001 8.004-6.503 9.005-11.506 1.001-5.503-0.5-10.506-4.503-14.508l-24.513-24.514c-4.503-4.502-10.506-6.003-16.009-4.002-7.505 2.001-15.009 3.001-22.513 3.001L209.896 672.157c-44.024 0-80.044-36.02-80.044-80.044l0-416.229c0-44.024 36.02-80.044 80.044-80.044l416.229 0c44.024 0 80.044 36.02 80.044 80.044L706.169 238.92c0 4.003 1.501 8.005 4.502 11.007l32.018 32.018c5.003 5.002 11.507 6.003 17.51 3.502 6.004-2.502 10.006-8.005 10.006-14.509L770.205 175.886zM866.257 496.062 530.072 159.877 385.993 159.877 385.993 303.956l336.185 336.185L866.257 496.062zM568.093 265.936l-76.041 76.041-58.032-58.031 0-28.016 48.026 0 0-48.026 28.016 0L568.093 265.936zM713.673 567.601 538.577 392.505c-4.503-4.503-5.003-12.007-0.5-16.509 4.502-4.503 12.006-4.003 16.509 0.5l175.096 175.096c4.503 4.503 5.003 12.007 0.501 16.509C725.68 572.604 718.176 572.104 713.673 567.601zM898.274 528.079 754.195 672.158l46.025 46.025c18.51 18.51 49.527 18.51 68.037 0l76.042-76.042c18.51-18.51 18.51-49.527 0-68.037L898.274 528.079z"  horiz-adv-x="1024" />

    
    <glyph glyph-name="delete1" unicode="&#58890;" d="M512-128C229.236364-128 0 101.236364 0 384S229.236364 896 512 896s512-229.236364 512-512S794.763636-128 512-128zM512 849.454545C254.929455 849.454545 46.545455 641.070545 46.545455 384s208.384-465.454545 465.454545-465.454545 465.454545 208.384 465.454545 465.454545S769.070545 849.454545 512 849.454545zM709.469091 614.376727l32.907636-32.907636L314.530909 153.623273l-32.907636 32.907636L709.469091 614.376727zM314.530909 614.376727l427.869091-427.869091-32.907636-32.907636L281.623273 581.469091 314.530909 614.376727z"  horiz-adv-x="1024" />

    
    <glyph glyph-name="delete2" unicode="&#59006;" d="M512 725.333333c-188.544 0-341.333333-152.832-341.333333-341.333333s152.789333-341.333333 341.333333-341.333333 341.333333 152.832 341.333333 341.333333-152.789333 341.333333-341.333333 341.333333zM670.165333 286.165333c16.682667-16.682667 16.682667-43.648 0-60.330667-8.32-8.32-19.242667-12.501333-30.165333-12.501333s-21.845333 4.181333-30.165333 12.501333l-97.834667 97.834667-97.834667-97.834667c-8.32-8.32-19.242667-12.501333-30.165333-12.501333s-21.845333 4.181333-30.165333 12.501333c-16.682667 16.682667-16.682667 43.648 0 60.330667l97.834667 97.834667-97.834667 97.834667c-16.682667 16.682667-16.682667 43.648 0 60.330667s43.648 16.682667 60.330667 0l97.834667-97.834667 97.834667 97.834667c16.682667 16.682667 43.648 16.682667 60.330667 0s16.682667-43.648 0-60.330667l-97.834667-97.834667 97.834667-97.834667z"  horiz-adv-x="1024" />

    
    <glyph glyph-name="tianjiayonghu" unicode="&#58945;" d="M513.81204 632.198633m-254.910518 0a45.157 45.157 0 1 0 509.821036 0 45.157 45.157 0 1 0-509.821036 0ZM536.487938 333.166924M613.084719 26.158853c0 116.427784 94.367189 210.800617 210.794972 210.800617 54.536185 0 104.172525-20.835634 142.163264-55.157133C934.182668 458.784741 734.412348 422.018964 734.412348 422.018964c-56.37645-46.571114-106.007144-88.242381-214.475502-88.242381-140.938302 0-229.175039 90.082646-229.175039 90.082646-229.180684 8.58602-232.24591-298.422051-232.24591-298.422051l0-134.813495c4.290187-71.081632 53.920882-110.297332 122.552591-110.297332l491.446615 0C634.530011-82.292569 613.084719-30.827255 613.084719 26.158853zM958.072238 2.263638c0-1.83462-1.224961-3.059581-3.065226-3.059581l-106.007144 0 0-106.007144c0-1.84591-1.224961-3.065226-3.059581-3.065226l-47.186417 0c-1.83462 0-3.065226 1.219316-3.065226 3.065226l0 106.007144-106.007144 0c-1.83462 0-3.059581 1.224961-3.059581 3.059581l0 47.186417c0 1.83462 1.224961 3.065226 3.059581 3.065226l106.007144 0 0 106.007144c0 1.83462 1.230606 3.059581 3.065226 3.059581l47.186417 0c1.83462 0 3.059581-1.224961 3.059581-3.059581l0-106.007144 106.007144 0c1.840265 0 3.065226-1.230606 3.065226-3.065226L958.072238 2.263638z"  horiz-adv-x="1024" />

    
    <glyph glyph-name="add" unicode="&#58921;" d="M511.17819-127.449171C232.458621-134.059121-1.643784 113.814014 0.008703 387.025292 1.661191 659.134911 239.068571 897.64395 516.135653 895.991462c271.55879-1.652488 510.618658-239.059868 508.966171-516.12695C1023.449336 108.305722 787.694443-135.711609 511.17819-127.449171zM491.34834 798.494696c-195.544362 1.652488-418.630184-188.383583-394.944528-457.188227 15.974046-181.222803 190.03607-398.249504 459.942373-374.013019 181.773632 16.524876 396.046187 190.586899 371.809703 459.391544C911.080182 617.822722 730.408208 816.672059 491.34834 798.494696zM560.201988 533.545856c0-27.541459 0.550829-55.082919 0-82.624378-0.550829-15.423217 5.508292-20.38068 20.38068-19.829851 55.082919 0.550829 110.165838 0 165.248757 0.550829 15.974046 0 22.583997-4.406634 21.482338-20.931509-1.101658-18.728192-1.101658-37.456385 0-55.633748 0.550829-14.872388-5.508292-19.279022-19.279022-18.728192-55.082919 0.550829-110.165838 0-165.248757 0.550829-16.524876 0-23.134826-4.957463-22.583997-22.033168 1.101658-54.53209 0-108.51335 0.550829-163.04544 0.550829-17.626534-6.059121-23.134826-22.583997-22.033168-17.075705 1.101658-34.702239 1.101658-51.777944 0-15.974046-1.101658-21.482338 4.957463-21.482338 21.482338 0.550829 53.430431-0.550829 107.411692 0.550829 160.842123 0.550829 20.38068-6.60995 25.888972-25.888972 25.338143-53.430431-1.101658-107.411692 0-160.842123-0.550829-14.872388 0-21.482338 4.406634-20.38068 19.829851 1.101658 18.728192 1.101658 37.456385 0 55.633748-1.101658 15.974046 5.508292 19.829851 20.38068 19.829851 54.53209-0.550829 108.51335 0.550829 163.04544-0.550829 17.626534-0.550829 24.236484 4.406634 23.685655 23.134826-1.101658 54.53209 0 108.51335-0.550829 163.04544 0 16.524876 5.508292 22.033168 21.482338 21.482338 17.626534-1.101658 35.803897-1.101658 53.430431 0 14.872388 0.550829 20.931509-4.406634 20.38068-19.829851C559.651159 589.730433 560.201988 561.638144 560.201988 533.545856z"  horiz-adv-x="1026" />

    
    <glyph glyph-name="delete3" unicode="&#58893;" d="M765.505691 704.057433H639.627772c0 35.32453-28.636201 63.960731-63.96073 63.960731H447.74558c-35.32453 0-63.960731-28.636201-63.96073-63.960731H257.905908c-36.452213 0-66.00325-29.551036-66.00325-66.00325v-59.875692c0-36.452213 29.551036-66.00325 66.00325-66.00325h-2.042519v-445.681572c0-36.452213 29.551036-66.00325 66.003249-66.00325h379.679346c36.452213 0 66.00325 29.551036 66.00325 66.00325V512.176264h-2.04252c36.452213 0 66.00325 29.551036 66.00325 66.00325v59.875693c-0.001023 36.452213-29.551036 66.002226-66.004273 66.002226z m-61.918211-611.470479c-0.101307-3.123131-1.743714-27.813462-27.961842-28.134781H347.905688c-27.988448 0.343831-27.969005 28.459169-27.969005 28.459169l-0.112564-0.031722V512.176264h383.763361v-419.58931z m31.980365 483.550041H287.843754c-17.662265 0-31.980365 14.3181-31.980365 31.980365 0 17.662265 14.3181 31.980365 31.980365 31.980366H735.568868c17.662265 0 31.980365-14.3181 31.980366-31.980366-0.001023-17.662265-14.319124-31.980365-31.981389-31.980365zM447.74558 128.411881c17.662265 0 31.980365 14.3181 31.980366 31.980365V416.235169c0 17.662265-14.3181 31.980365-31.980366 31.980365-17.662265 0-31.980365-14.3181-31.980365-31.980365v-255.842923c0-17.662265 14.3181-31.980365 31.980365-31.980365zM575.667042 128.411881c17.662265 0 31.980365 14.3181 31.980365 31.980365V416.235169c0 17.662265-14.3181 31.980365-31.980365 31.980365-17.662265 0-31.980365-14.3181-31.980366-31.980365v-255.842923c0-17.662265 14.3181-31.980365 31.980366-31.980365z"  horiz-adv-x="1024" />

    
    <glyph glyph-name="edit1" unicode="&#59264;" d="M798.165333 798.165333a42.624 42.624 0 0 1-60.330666 0l-341.333334-341.333333a42.794667 42.794667 0 0 1-11.221333-19.797333l-42.666667-170.666667a42.666667 42.666667 0 0 1 51.712-51.754667l170.666667 42.666667c7.509333 1.877333 14.378667 5.76 19.84 11.221333l341.333333 341.333334a42.624 42.624 0 0 1 0 60.330666l-128 128z m-265.344-460.970666l-90.197333-22.528 22.570667 90.197333L768 707.669333 835.669333 640l-302.848-302.805333zM213.333333 42.666667h597.333334a42.666667 42.666667 0 0 1 42.666666 42.666666v256h-85.333333v-213.333333H256V640h213.333333V725.333333H213.333333a42.666667 42.666667 0 0 1-42.666666-42.666666v-597.333334a42.666667 42.666667 0 0 1 42.666666-42.666666z"  horiz-adv-x="1024" />

    
    <glyph glyph-name="delete4" unicode="&#59122;" d="M512 64c-176.448 0-320 143.552-320 320S335.552 704 512 704s320-143.552 320-320-143.552-320-320-320m0 704C300.256 768 128 595.744 128 384s172.256-384 384-384 384 172.256 384 384S723.744 768 512 768M649.824 534.624a31.968 31.968 0 0 1-45.248 0L505.6 435.648l-98.976 98.976a31.968 31.968 0 1 1-45.248-45.248l98.976-98.976-98.976-98.976a32 32 0 0 1 45.248-45.248l98.976 98.976 98.976-98.976a31.904 31.904 0 0 1 45.248 0 31.968 31.968 0 0 1 0 45.248L550.848 390.4l98.976 98.976a31.968 31.968 0 0 1 0 45.248"  horiz-adv-x="1024" />

    
    <glyph glyph-name="add1" unicode="&#58881;" d="M848 422H550V744h-76v-322H176c-4.4 0-8-3.6-8-8v-60c0-4.4 3.6-8 8-8h298v-322h76V346h298c4.4 0 8 3.6 8 8v60c0 4.4-3.6 8-8 8z"  horiz-adv-x="1024" />

    
    <glyph glyph-name="time1" unicode="&#58907;" d="M510.6257 813.090708c-241.509473 0-437.293531-195.784058-437.293531-437.293531 0-241.511519 195.784058-437.293531 437.293531-437.293531 241.511519 0 437.293531 195.782012 437.293531 437.293531C947.919231 617.30665 752.137219 813.090708 510.6257 813.090708zM510.6257-23.471318c-220.508159 0-399.268496 178.75829-399.268496 399.268496s178.760336 399.268496 399.268496 399.268496c220.510206 0 399.268496-178.75829 399.268496-399.268496S731.135906-23.471318 510.6257-23.471318zM715.169259 277.027663 529.638729 382.186701 529.638729 651.482007c0 5.249561-4.254907 9.506515-9.506515 9.506515l-19.013029 0c-5.249561 0-9.504468-4.256954-9.504468-9.506515l0-285.191344c0-1.950422 0.589424-3.76372 1.597381-5.273097 0.813528-1.656733 2.116197-3.095501 3.843538-4.073782l199.38098-113.009843c4.571109-2.583848 10.369162-0.977257 12.957103 3.591805l9.365298 16.544815C721.345935 268.640646 719.739345 274.441768 715.169259 277.027663z"  horiz-adv-x="1024" />

    
    <glyph glyph-name="appstore" unicode="&#59284;" d="M464 752H160c-8.8 0-16-7.2-16-16v-304c0-8.8 7.2-16 16-16h304c8.8 0 16 7.2 16 16V736c0 8.8-7.2 16-16 16z m-52-268H212V684h200v-200zM864 752H560c-8.8 0-16-7.2-16-16v-304c0-8.8 7.2-16 16-16h304c8.8 0 16 7.2 16 16V736c0 8.8-7.2 16-16 16z m-52-268H612V684h200v-200zM464 352H160c-8.8 0-16-7.2-16-16v-304c0-8.8 7.2-16 16-16h304c8.8 0 16 7.2 16 16V336c0 8.8-7.2 16-16 16z m-52-268H212V284h200v-200zM864 352H560c-8.8 0-16-7.2-16-16v-304c0-8.8 7.2-16 16-16h304c8.8 0 16 7.2 16 16V336c0 8.8-7.2 16-16 16z m-52-268H612V284h200v-200z"  horiz-adv-x="1024" />

    
    <glyph glyph-name="alert" unicode="&#59331;" d="M193 100c0-17.7 14.3-32 32-32h574c17.7 0 32 14.3 32 32V333c0 176.2-142.8 319-319 319S193 509.2 193 333v-233z m72 233c0 136.4 110.6 247 247 247s247-110.6 247-247v-193H404V311c0 5.5-4.5 10-10 10h-44c-5.5 0-10-4.5-10-10v-171h-75V333zM216.9 585.5l39.6 39.6c3.1 3.1 3.1 8.2 0 11.3l-67.9 67.9c-3.1 3.1-8.2 3.1-11.3 0l-39.6-39.6c-3.1-3.1-3.1-8.2 0-11.3l67.9-67.9c3.1-3.1 8.1-3.1 11.3 0zM886.5 664.7l-39.6 39.6c-3.1 3.1-8.2 3.1-11.3 0l-67.9-67.9c-3.1-3.1-3.1-8.2 0-11.3l39.6-39.6c3.1-3.1 8.2-3.1 11.3 0l67.9 67.9c3.1 3.2 3.1 8.2 0 11.3zM832 4H192c-17.7 0-32-14.3-32-32v-24c0-4.4 3.6-8 8-8h688c4.4 0 8 3.6 8 8v24c0 17.7-14.3 32-32 32zM484 716h56c4.4 0 8 3.6 8 8V820c0 4.4-3.6 8-8 8h-56c-4.4 0-8-3.6-8-8v-96c0-4.4 3.6-8 8-8z"  horiz-adv-x="1024" />

    
    <glyph glyph-name="cloud-upload" unicode="&#59354;" d="M518.3 437c-3.2 4.1-9.4 4.1-12.6 0l-112-141.7c-4.1-5.2-0.4-12.9 6.3-12.9h73.9V40c0-4.4 3.6-8 8-8h60c4.4 0 8 3.6 8 8V282.29999999999995H624c6.7 0 10.4 7.7 6.3 12.9L518.3 437zM811.4 529.3C765.6 650.1 648.9 736 512.2 736S258.8 650.2 213 529.4C127.3 506.9 64 428.8 64 336c0-110.5 89.5-200 199.9-200H304c4.4 0 8 3.6 8 8v60c0 4.4-3.6 8-8 8h-40.1c-33.7 0-65.4 13.4-89 37.7-23.5 24.2-36 56.8-34.9 90.6 0.9 26.4 9.9 51.2 26.2 72.1 16.7 21.3 40.1 36.8 66.1 43.7l37.9 9.9 13.9 36.6c8.6 22.8 20.6 44.1 35.7 63.4 14.9 19.2 32.6 35.9 52.4 49.9 41.1 28.9 89.5 44.2 140 44.2s98.9-15.3 140-44.2c19.9-14 37.5-30.8 52.4-49.9 15.1-19.3 27.1-40.7 35.7-63.4l13.8-36.5 37.8-10C846.1 441.5 884 392.2 884 336c0-33.1-12.9-64.3-36.3-87.7-23.4-23.4-54.5-36.3-87.6-36.3H720c-4.4 0-8-3.6-8-8v-60c0-4.4 3.6-8 8-8h40.1C870.5 136 960 225.5 960 336c0 92.7-63.1 170.7-148.6 193.3z"  horiz-adv-x="1024" />

    
    <glyph glyph-name="cloud-download" unicode="&#59355;" d="M624 189.70000000000005h-74.1V432c0 4.4-3.6 8-8 8h-60c-4.4 0-8-3.6-8-8v-242.3H400c-6.7 0-10.4-7.7-6.3-12.9l112-141.7c3.2-4.1 9.4-4.1 12.6 0l112 141.7c4.1 5.2 0.4 12.9-6.3 12.9zM811.4 529.3C765.6 650.1 648.9 736 512.2 736S258.8 650.2 213 529.4C127.3 506.9 64 428.8 64 336c0-110.5 89.5-200 199.9-200H304c4.4 0 8 3.6 8 8v60c0 4.4-3.6 8-8 8h-40.1c-33.7 0-65.4 13.4-89 37.7-23.5 24.2-36 56.8-34.9 90.6 0.9 26.4 9.9 51.2 26.2 72.1 16.7 21.3 40.1 36.8 66.1 43.7l37.9 9.9 13.9 36.6c8.6 22.8 20.6 44.1 35.7 63.4 14.9 19.2 32.6 35.9 52.4 49.9 41.1 28.9 89.5 44.2 140 44.2s98.9-15.3 140-44.2c19.9-14 37.5-30.8 52.4-49.9 15.1-19.3 27.1-40.7 35.7-63.4l13.8-36.5 37.8-10C846.1 441.5 884 392.2 884 336c0-33.1-12.9-64.3-36.3-87.7-23.4-23.4-54.5-36.3-87.6-36.3H720c-4.4 0-8-3.6-8-8v-60c0-4.4 3.6-8 8-8h40.1C870.5 136 960 225.5 960 336c0 92.7-63.1 170.7-148.6 193.3z"  horiz-adv-x="1024" />

    
    <glyph glyph-name="share" unicode="&#59367;" d="M752 232c-28.5 0-54.8-10-75.4-26.7L469.4 355.2c1.7 9.3 2.6 19 2.6 28.8s-0.9 19.4-2.6 28.8l207.2 149.9C697.2 546 723.5 536 752 536c66.2 0 120 53.8 120 120s-53.8 120-120 120-120-53.8-120-120c0-11.6 1.6-22.7 4.7-33.3L439.9 480.2C410.7 518.9 364.3 544 312 544c-88.4 0-160-71.6-160-160s71.6-160 160-160c52.3 0 98.7 25.1 127.9 63.8l196.8-142.5c-3.1-10.6-4.7-21.8-4.7-33.3 0-66.2 53.8-120 120-120s120 53.8 120 120-53.8 120-120 120z m0 476c28.7 0 52-23.3 52-52s-23.3-52-52-52-52 23.3-52 52 23.3 52 52 52zM312 296c-48.5 0-88 39.5-88 88s39.5 88 88 88 88-39.5 88-88-39.5-88-88-88z m440-236c-28.7 0-52 23.3-52 52s23.3 52 52 52 52-23.3 52-52-23.3-52-52-52z"  horiz-adv-x="1024" />

    
    <glyph glyph-name="shipin" unicode="&#58887;" d="M63.465962 102.860948c0-55.038524 44.620243-99.708909 99.709933-99.708909l697.969529 0c55.04057 0 99.709933 44.669362 99.709933 99.708909L960.855356 701.121568c0 55.089689-44.669362 99.709933-99.709933 99.709933L163.174871 800.8315c-55.089689 0-99.709933-44.620243-99.709933-99.709933L63.464939 102.860948zM761.435491 401.99177 362.59576 152.716426 362.59576 651.267113 761.435491 401.99177z"  horiz-adv-x="1024" />

    
    <glyph glyph-name="shuju" unicode="&#58942;" d="M939.084071 765.701377c-18.878398 27.189275-49.935911 43.42912-83.072936 43.42912-20.654839 0-40.57248-6.246724-57.604813-18.071576-45.75334-31.796759-57.126658-94.911098-25.344233-140.691058a100.913114 100.913114 0 0 1 11.963076-14.211529l-51.156382-114.476522a101.137345 101.137345 0 0 1-34.747597 6.164813c-20.669173 0-40.58579-6.247748-57.604812-18.071576-27.221015-18.912186-42.269058-48.897691-43.308301-79.726878l-146.038812-30.880382a100.818916 100.818916 0 0 1-12.339866 24.117619c-18.891708 27.175964-49.950246 43.402499-83.086246 43.402499-20.654839 0-40.57248-6.246724-57.605836-18.071576-45.75334-31.810069-57.113347-94.911098-25.330923-140.691058a101.149631 101.149631 0 0 1 7.952517-10.012575l-85.542547-138.171277a101.118915 101.118915 0 0 1-31.852049 5.154239c-20.669173 0-40.58579-6.246724-57.604812-18.071576-22.173261-15.392068-37.031884-38.508327-41.816501-65.096581-4.784616-26.574944 1.065865-53.40893 16.472267-75.567857 18.878398-27.189275 49.936935-43.42912 83.072936-43.42912 20.654839 0 40.57248 6.246724 57.604813 18.071576 22.173261 15.406402 37.018574 38.521638 41.80319 65.096582 4.784616 26.57392-1.065865 53.422241-16.472267 75.581166a101.287856 101.287856 0 0 1-4.982226 6.568225l86.86643 140.309149a101.187515 101.187515 0 0 1 27.585519-3.835474c20.654839 0 40.57248 6.247748 57.604812 18.071576 21.335722 14.829955 35.190939 36.463628 40.685107 59.969987l156.764011 33.148288a102.026077 102.026077 0 0 1 4.224551-6.615324c18.891708-27.175964 49.950246-43.402499 83.071912-43.402498 20.669173 0 40.58579 6.247748 57.605836 18.071576 45.76665 31.796759 57.126658 94.896764 25.344233 140.677748a102.03222 102.03222 0 0 1-2.24538 3.089062l54.431791 121.806517a101.089222 101.089222 0 0 1 21.754492-2.371318c20.669173 0 40.58579 6.247748 57.604812 18.071576 22.173261 15.392068 37.031884 38.508327 41.816501 65.096581 4.784616 26.574944-1.065865 53.40893-16.472267 75.567856zM208.792743 55.819156c-2.132753-11.851473-8.762411-22.158926-18.645975-29.03534-19.821396-13.792759-49.089158-8.352856-62.744717 11.319052-6.876414 9.883565-9.487321 21.857904-7.354568 33.696067 2.132753 11.851473 8.762411 22.158926 18.659286 29.03534 7.58699 5.277105 16.458957 8.065145 25.658566 8.065144a45.161534 45.161534 0 0 0 24.270178-7.090406 28.255139 28.255139 0 0 1 3.205785-2.315004c0.140272-0.08703 0.285664-0.159726 0.427984-0.244709a44.917849 44.917849 0 0 0 9.168893-9.720767c6.876414-9.882541 9.487321-21.85688 7.354568-33.709377z m173.759483 272.756907c-19.834707-13.807094-49.102469-8.338522-62.759051 11.291408-14.175692 20.423441-9.104388 48.569024 11.291408 62.759051 7.600301 5.277105 16.472267 8.065145 25.658566 8.065145 14.804358 0 28.680052-7.245013 37.100485-19.370887a44.794983 44.794983 0 0 0 8.03238-24.748332c-0.012287-0.475083-0.012287-0.952213 0-1.430368-0.162798-14.097877-6.891772-27.921353-19.323788-36.566017z m342.350393 61.173053c-19.793751-13.765114-49.089158-8.379477-62.744717 11.291407-14.175692 20.423441-9.104388 48.569024 11.304718 62.744717 7.58699 5.277105 16.458957 8.065145 25.658566 8.065145 14.791047 0 28.665717-7.231702 37.086151-19.356552 14.175692-20.422417 9.104388-48.568-11.304718-62.744717z m175.550258 310.308925c-2.132753-11.851473-8.762411-22.158926-18.659286-29.03534-19.793751-13.779449-49.102469-8.366167-62.744716 11.291408-14.175692 20.423441-9.104388 48.569024 11.304717 62.759051 7.600301 5.276081 16.472267 8.065145 25.658567 8.065145 14.804358 0 28.665717-7.245013 37.08615-19.384197 6.87539-9.882541 9.486298-21.857904 7.354568-33.696067z"  horiz-adv-x="1024" />

    
    <glyph glyph-name="wenbenwendang" unicode="&#58949;" d="M853.3 896H170.7C108.1 896 56.9 844.8 56.9 782.2v-796.4c0-62.6 51.2-113.8 113.8-113.8h682.7c62.6 0 113.8 51.2 113.8 113.8V782.2C967.1 844.8 915.9 896 853.3 896z m56.9-910.2c0-31.4-25.5-56.9-56.9-56.9H170.7c-31.4 0-56.9 25.5-56.9 56.9V782.2c0 31.4 25.5 56.9 56.9 56.9h682.7c31.4 0 56.9-25.5 56.9-56.9v-796.4zM284.4 327.1h568.9v-56.9H284.4zM170.7 213.3h682.7v-56.9H170.7zM170.7 99.6h682.7v-56.9H170.7zM227.6 440.9h56.8V668.4h56.9v56.9H170.7v-56.9h56.9zM682.7 668.4h56.9v-227.5h56.8V668.4h56.9v56.9H682.7zM449.4 452.3l62.6 83.4 62.6-83.4 45.5 34.1-72.5 96.7 72.5 96.7-45.5 34.1-62.6-83.4-62.6 83.4-45.5-34.1 72.5-96.7-72.5-96.7z"  horiz-adv-x="1024" />

    
    <glyph glyph-name="wenben" unicode="&#58953;" d="M692.2597343921661 13.21142578125H331.711297750473v30.689996480941772a563.3140236139297 563.3140236139297 0 0 0 48.088091611862176 14.83154296875c16.200274229049683 4.278552532196046 33.656305074691765 7.757592201232912 52.39561200141907 10.638445615768433v630.340576171875h-136.73552870750427l-57.244107127189636-151.53810381889343H211.2339789867401c-2.1675199270248413 14.118209481239319-3.9642512798309326 30.233752727508545-5.419161915779114 48.23148250579833-1.4541864395141602 17.939794063568115-2.6809751987457275 36.30831241607666-3.7933409214019784 55.10410666465761-1.1123657226562498 18.59736442565918-1.9683659076690674 37.078857421875-2.6527315378189087 55.019375681877136C198.6264432668686 724.469366312027 198.2563788890838 740.6413968801498 198.2563788890838 754.78857421875h627.4886906147003c0-14.147177338600159-0.3997564315795899-30.090361833572388-1.1123657226562498-47.689059376716614-0.7415771484374999-17.655909061431885-1.6547888517379765-35.852792859077454-2.766430377960205-54.56313192844391s-2.139276266098023-37.078857421875-3.251641988754273-55.10410666465761c-1.0841220617294314-17.998453974723816-2.7099430561065674-34.48406159877777-4.9064308404922485-49.28736090660096h-28.408053517341607l-56.75889551639557 151.53810381889343H592.8891206979752V69.31492352485657c18.71033906936645-3.5659432411193848 36.22285723686218-7.07395076751709 52.366644144058235-10.638445615768433 16.229242086410522-3.508731722831726 31.85957372188568-8.415162563323973 47.00469374656678-14.83154296875v-30.633509159088135z"  horiz-adv-x="1024" />

    
    <glyph glyph-name="ditufuwu" unicode="&#58903;" d="M512 95.81714299999999a18.651429 18.651429 0 0 0-12.8 5.485714c-10.971429 10.971429-261.485714 265.508571-261.485714 428.982857A271.725714 271.725714 0 0 0 512 804.571429a271.725714 271.725714 0 0 0 274.285714-274.285715c0-163.474286-250.514286-418.011429-261.485714-428.982857a18.651429 18.651429 0 0 0-12.8-5.485714zM512 768A235.154286 235.154286 0 0 1 274.285714 530.285714c0-128.731429 186.148571-334.994286 237.714286-389.485714 51.565714 54.491429 237.714286 260.754286 237.714286 389.485714A235.154286 235.154286 0 0 1 512 768zM512 438.857143a91.428571 91.428571 0 1 0 91.428571 91.428571 91.428571 91.428571 0 0 0-91.428571-91.428571z m0 146.285714a54.857143 54.857143 0 1 1 54.857143-54.857143A54.857143 54.857143 0 0 1 512 585.142857zM512-36.571428999999966c-208.822857 0-420.571429 43.885714-420.571429 128 0 65.097143 123.977143 96.914286 197.851429 109.714286a18.651429 18.651429 0 0 0 21.211429-14.994286 18.285714 18.285714 0 0 0-14.628572-21.211428c-123.245714-21.942857-167.862857-55.954286-167.862857-73.142857 0-36.571429 149.577143-91.428571 384-91.428572S896 54.85714299999995 896 91.42857100000003c0 17.92-44.617143 51.931429-167.862857 73.142858a18.285714 18.285714 0 0 0-14.628572 21.211428 18.651429 18.651429 0 0 0 21.211429 14.994286c73.142857-13.165714 197.851429-44.982857 197.851429-109.714286 0-83.748571-211.748571-127.634286-420.571429-127.634286z"  horiz-adv-x="1024" />

    
    <glyph glyph-name="ditu" unicode="&#58906;" d="M611.6 277.29999999999995l18.6 27.9c111 46.3 189.1 155.8 189.1 283.6C819.2 758.5 681.7 896 512 896S204.8 758.5 204.8 588.8c0-127.8 78.1-237.3 189.1-283.6l18.6-27.9C177.5 258.79999999999995 0 176.20000000000005 0 76.79999999999995 0-36.299999999999955 229.2-128 512-128s512 91.7 512 204.8c0 99.4-177.5 182-412.4 200.5zM358.4 588.8c0 84.8 68.8 153.6 153.6 153.6s153.6-68.8 153.6-153.6S596.8 435.2 512 435.2 358.4 504 358.4 588.8z m153.6-512c-197.9 0-358.4 45.8-358.4 102.4 0 46.6 109.6 85.7 258.9 98L512 128l99.5 149.2c149.3-12.4 258.9-51.4 258.9-98 0-56.6-160.5-102.4-358.4-102.4z"  horiz-adv-x="1024" />

    
    <glyph glyph-name="weibiaoti-" unicode="&#58900;" d="M877.689404 896H146.297694C65.46917 896-0.006451 830.459871-0.006451 749.6958549999999v-731.456218c0-80.764017 65.46917-146.239637 146.310596-146.239637h731.398161c80.822074 0 146.304145 65.475621 146.304145 146.239637V749.6958549999999C1023.993549 830.459871 958.53083 896 877.689404 896zM512 383.99354900000003m-354.794003 0a354.794003 354.794003 0 1 1 709.588006 0 354.794003 354.794003 0 1 1-709.588006 0ZM431.132771 181.33521499999995c-30.686456-17.810659-55.863928-3.360867-55.941338 32.124984l-0.812801 341.086053c-0.08386 35.4794 25.022653 50.051758 55.792969 32.389467l295.788535-169.856016c30.776767-17.668741 30.841275-46.697342 0.148368-64.514452l-294.975733-171.230036z"  horiz-adv-x="1024" />

    
    <glyph glyph-name="dashujukeshihuaico-" unicode="&#59395;" d="M720.64 715.52L512 835.84 303.36 715.52v-240.64L512 353.91999999999996l208.64 120.96V715.52zM52.48 293.12v-240.64l208.64-120.32 208.64 120.32V293.12L261.12 414.08 52.48 293.12zM762.88 414.08L554.24 293.12v-240.64l208.64-120.32 208.64 120.32V293.12l-208.64 120.96z"  horiz-adv-x="1024" />

    
    <glyph glyph-name="shipin1" unicode="&#59029;" d="M783.108267 595.3536c0 69.44-56.635733 125.713067-126.506667 125.713067H169.1776C99.306667 721.066667 42.666667 664.7936 42.666667 595.3536v-422.698667C42.666667 103.214933 99.306667 46.933333 169.173333 46.933333h487.428267c69.870933 0 126.506667 56.290133 126.506667 125.717334a14.0544 14.0544 0 0 0 18.0736 13.469866l106.7648-31.816533c27.0976-8.0768 55.616 7.342933 63.6928 34.4448a51.2 51.2 0 0 1 2.133333 14.621867V566.6304c0 28.2752-22.9248 51.2-51.2 51.2a51.2 51.2 0 0 1-14.626133-2.133333l-108.680534-32.388267a12.565333 12.565333 0 0 0-16.157866 12.0448zM311.466667 272.238933v219.264c0 28.279467 22.9248 51.2 51.2 51.2a51.2 51.2 0 0 0 27.392-7.940266l173.1072-109.623467c23.893333-15.1296 30.993067-46.762667 15.863466-70.651733a51.2 51.2 0 0 0-15.8592-15.8592l-173.1072-109.6448c-23.889067-15.133867-55.517867-8.034133-70.651733 15.854933A51.2 51.2 0 0 0 311.466667 272.234667z"  horiz-adv-x="1024" />

    
    <glyph glyph-name="shuju1" unicode="&#58889;" d="M891.04 7.73V572.42H765.97v-564.69H632.31V372.42H507.24v-364.69H373.58V269.39H248.5v-261.66H122.13V749.99H92.96V-21.45h838.08v29.18h-40zM138.28 112.07a10 10 0 0 1 13.65 3.7l147 256 96.36-82.18a10 10 0 0 1 14.71 1.87l146.78 208.2L614 400.49a10 10 0 0 1 17-0.47l228.8 350.39 14.2-82.74 19.73 3.42-20.36 118.36-116.58-28.93 4.81-19.43 81.4 20.22-219.84-336.73-56.89 98.63a10 10 0 0 1-16.83 0.77L400 311.95l-97.17 82.88a10 10 0 0 1-15.16-2.63l-153-266.47a10 10 0 0 1 3.61-13.66z"  horiz-adv-x="1024" />

    
    <glyph glyph-name="ditu1" unicode="&#58922;" d="M1017.6 6.4c-6.4 12.8-6.4 19.2-6.4 19.2l-121.6 236.8-6.4 6.4-6.4 6.4c-12.8 19.2-25.6 44.8-57.6 44.8h-128c-19.2 0-25.6-12.8-25.6-25.6s12.8-25.6 25.6-25.6h128s6.4-6.4 12.8-19.2l6.4-6.4 121.6-217.6s-6.4-6.4-12.8-6.4h-870.4s-6.4 0-6.4 6.4l128 217.6s6.4 6.4 6.4 12.8 6.4 6.4 0 6.4h115.2c19.2 0 25.6 12.8 25.6 25.6s-12.8 25.6-25.6 25.6h-115.2c-32 0-44.8-19.2-51.2-32l-6.4-6.4s-6.4-6.4-6.4-12.8l-134.4-230.4v-12.8c0-38.4 32-64 70.4-64h870.4c32-6.4 70.4 12.8 70.4 51.2zM512 492.8c70.4 0 128 57.6 128 128s-57.6 128-128 128-128-57.6-128-128 57.6-128 128-128z m0 198.4c38.4 0 70.4-32 70.4-70.4-6.4-38.4-38.4-70.4-70.4-70.4-38.4 0-70.4 32-70.4 70.4 0 38.4 32 70.4 70.4 70.4zM441.6 211.2c25.6-32 44.8-44.8 70.4-44.8s44.8 12.8 70.4 44.8c70.4 76.8 160 185.6 192 307.2 25.6 83.2 6.4 172.8-44.8 249.6-51.2 64-134.4 102.4-217.6 102.4-96 0-172.8-38.4-230.4-102.4-51.2-64-64-160-32-249.6 25.6-83.2 89.6-192 192-307.2z m-115.2 524.8c32 51.2 96 76.8 179.2 76.8 64 0 128-32 166.4-83.2 44.8-57.6 64-134.4 44.8-198.4-32-115.2-115.2-217.6-185.6-281.6l-25.6-25.6s-6.4 6.4-6.4 12.8c-6.4 6.4-6.4 12.8-12.8 12.8l-12.8 12.8c-44.8 51.2-140.8 166.4-172.8 275.2-19.2 70.4-12.8 140.8 25.6 198.4z"  horiz-adv-x="1024" />

    
    <glyph glyph-name="wenbenyu" unicode="&#59587;" d="M970.105263-74.105263H53.894737V842.105263h916.210526v-916.210526zM107.789474-20.210526h808.421052V788.210526H107.789474v-808.421052zM646.736842 464.842105V518.736842h-107.789474v-269.473684h53.894737v-53.894737H431.157895v53.894737h53.894737V518.736842H377.263158v-53.894737H323.368421V572.631579h377.263158v-107.789474h-53.894737zM646.736842 33.684211v53.894736h161.684211v161.684211h53.894736v-215.578947h-215.578947z"  horiz-adv-x="1024" />

    
    <glyph glyph-name="shipin2" unicode="&#58905;" d="M64.67 384c2.03 148.27 27.78 271.04 103.07 344.26C240.96 803.55 363.73 829.3 512 831.33c148.27-2.03 271.04-27.78 344.26-103.07C931.55 655.04 957.3 532.27 959.33 384c-2.03-148.27-27.78-271.04-103.07-344.26C783.04-35.55 660.27-61.3 512-63.33c-148.27 2.03-271.04 27.78-344.26 103.07C92.45 112.96 66.7 235.73 64.67 384zM676.18 425.16l-243 135.24c-31.39 17.47-70-5.23-70-41.16v-270.48c0-35.93 38.61-58.63 70-41.16l243 135.24c32.26 17.96 32.26 64.36 0 82.32z"  horiz-adv-x="1024" />

    
    <glyph glyph-name="wenben1" unicode="&#58939;" d="M839.647708-120.974416H184.352292a98.358181 98.358181 0 0 0-97.719492 98.358182V788.519417A98.358181 98.358181 0 0 0 184.352292 886.877598h383.213694a97.080802 97.080802 0 0 0 63.868948-24.90889l275.27517-243.979385a95.803423 95.803423 0 0 0 32.573164-72.810602v-567.794955a98.358181 98.358181 0 0 0-99.63556-98.358182zM184.352292 821.092581a32.573164 32.573164 0 0 1-32.573164-32.573164v-811.135651a32.573164 32.573164 0 0 1 32.573164-32.573164h655.295416a32.573164 32.573164 0 0 1 32.573164 32.573164V545.178721a30.657095 30.657095 0 0 1-10.857722 23.631512l-274.63648 243.979384a35.127922 35.127922 0 0 1-21.715442 8.302964zM448.131051 541.346584H288.458679a33.211853 33.211853 0 0 0 0 63.868949H448.131051a33.211853 33.211853 0 1 0 0-63.868949zM667.840235 348.462359H288.458679a32.573164 32.573164 0 0 0 0 63.868949h379.381556a32.573164 32.573164 0 0 0 0-63.868949zM667.840235 154.939444H288.458679a33.211853 33.211853 0 0 0 0 63.868949h379.381556a33.211853 33.211853 0 0 0 0-63.868949zM883.078593 536.875758h-319.344744a32.573164 32.573164 0 0 0-33.211854 32.573164V853.665745a33.211853 33.211853 0 1 0 63.868949 0v-251.643659h285.494202a32.573164 32.573164 0 1 0 0-63.868949z"  horiz-adv-x="1024" />

    
    <glyph glyph-name="shujukaifa" unicode="&#58892;" d="M900 89.9c0 17.7 12.3 32 30 32s30-14.3 30-32V16c0-26.5-19.5-48-46-48H112c-26.5 0-48 21.5-48 48V752c0 26.5 21.5 48 48 48h800c26.5 0 48-21.5 48-48v-166.1H124V28h776v61.9z m0 556V740H124v-94.1h776zM644.2 486c5.5 15.2 22.3 23 37.5 17.5s23-22.3 17.5-37.5l-117-321.7c-5.5-15.2-22.3-23-37.5-17.5s-23 22.3-17.5 37.5l117 321.7z m122.7-58.8c-10.8 12-9.8 30.5 2.2 41.3 12 10.8 30.5 9.8 41.3-2.2L926 337.8c10-11.1 10-28 0-39.1L810.4 170.1c-10.8-12-29.3-13-41.3-2.2-12 10.8-13 29.3-2.2 41.3l98 109-98 109z m-308.9 0c10.8 12 9.8 30.5-2.2 41.3-12 10.8-30.5 9.8-41.3-2.2L298.9 337.8c-10-11.1-10-28 0-39.1l115.6-128.5c10.6-12.2 29.1-13.5 41.3-2.9s13.5 29.1 2.9 41.3c-0.2 0.3-0.5 0.5-0.7 0.8l-98 109 98 108.8z"  horiz-adv-x="1024" />

    
    <glyph glyph-name="ditu2" unicode="&#59256;" d="M888.36363653 140.18181826a8.18181826 8.18181826 0 0 0-4.5-7.32272695l-233.59090958-119.12727305a8.18181826 8.18181826 0 0 0-7.56818174 0.04090869l-255.35454521 135.40909131a73.63636348 73.63636348 0 0 1-67.90909131 0.57272695L135.63636347 56.31818174V431.94545479l66.96818174 31.90909042a32.72727305 32.72727305 0 1 1-28.1454539 59.11363653l-81-38.57727305A40.90909131 40.90909131 0 0 1 70.18181826 447.40909131v-431.18181826a40.90909131 40.90909131 0 0 1 59.44090869-36.40909131l219.51818174 111.55909131a8.18181826 8.18181826 0 0 0 7.52727305-0.08181826l255.39545479-135.40909132a73.63636348 73.63636348 0 0 1 67.90909042-0.49090868l233.67272784 119.12727216a73.63636348 73.63636348 0 0 1 40.17272695 65.57727305V536.18181826a40.90909131 40.90909131 0 0 1-54.28636348 38.65909043l-73.63636347-25.48636348a32.72727305 32.72727305 0 0 1 21.3954539-61.85454521l41.07272784 14.23636347v-361.55454521zM570.37727305 182.72727305C703.00454521 355.24090868999997 769.72727305 481.85454521 769.72727305 568.09090869a257.72727305 257.72727305 0 0 1-515.4545461 0c0-86.23636348 66.72272695-212.85 199.35-385.36363564a73.63636348 73.63636348 0 0 1 116.7545461 0z m-51.87272784 39.92727216a8.18181826 8.18181826 0 0 0-13.00909042 0C381.37727305 384.08181826 319.72727305 501.08181826 319.72727305 568.09090869a192.27272695 192.27272695 0 0 0 384.5454539 0c0-67.00909131-61.65-184.00909131-185.76818174-345.43636348zM512 435.38181826a132.70909131 132.70909131 0 1 1 0 265.41818174 132.70909131 132.70909131 0 0 1 0-265.41818174z m0 65.45454522a67.25454521 67.25454521 0 1 0 0 134.50909131 67.25454521 67.25454521 0 0 0 0-134.50909132z"  horiz-adv-x="1024" />

    
    <glyph glyph-name="charuwenben" unicode="&#58936;" d="M947.2-128H25.6V896h972.8v-1024h-51.2z m0 972.8H76.8v-921.6h870.4V844.8zM230.4 128h563.2v-102.4H230.4v102.4z m358.4 51.2H435.2V640H230.4V742.4h563.2v-102.4h-204.8v-460.8z"  horiz-adv-x="1024" />

    
    <glyph glyph-name="shuju2" unicode="&#59013;" d="M825.6 422.4V64H896v-64H128v64h64v121.6h64V64h128V364.8h64V64h128v179.2h64V64h128V422.4h57.6zM896 768v-268.8h-64V665.6L620.8 454.4l-51.2-44.8-108.8 108.8-275.2-275.2-44.8 44.8 320 320L576 499.2 780.8 704H640V768h256z"  horiz-adv-x="1024" />

    
    <glyph glyph-name="icon_fuben" unicode="&#58888;" d="M472.082963 265.671111C380.112593 265.671111 305.303704 340.385185 305.303704 432.355556s74.808889 166.684444 166.779259 166.684444S638.767407 524.231111 638.767407 432.355556s-74.808889-166.684444-166.684444-166.684445z m0 290.607408C403.626667 556.278519 347.97037 500.717037 347.97037 432.355556s55.656296-124.017778 124.112593-124.017778S596.100741 363.994074 596.100741 432.355556 540.444444 556.278519 472.082963 556.278519zM788.954074 548.219259c-52.242963 0-94.814815 42.571852-94.814815 94.814815s42.571852 94.814815 94.814815 94.814815 94.814815-42.571852 94.814815-94.814815-42.477037-94.814815-94.814815-94.814815z m0 146.868148c-28.728889 0-52.148148-23.419259-52.148148-52.148148s23.419259-52.148148 52.148148-52.148148 52.148148 23.419259 52.148148 52.148148c0 28.823704-23.324444 52.148148-52.148148 52.148148zM789.048889 17.161481c-59.06963 0-107.140741 48.071111-107.140741 107.140741s48.071111 107.140741 107.140741 107.140741 107.140741-48.071111 107.140741-107.140741-48.071111-107.140741-107.140741-107.140741z m0 171.614815c-35.555556 0-64.474074-28.918519-64.474074-64.474074s28.918519-64.474074 64.474074-64.474074 64.474074 28.918519 64.474074 64.474074-28.918519 64.474074-64.474074 64.474074zM230.58963 49.777778c-56.414815 0-102.4 45.89037-102.4 102.4s45.89037 102.4 102.4 102.4 102.4-45.89037 102.4-102.4-45.89037-102.4-102.4-102.4z m0 162.133333c-32.900741 0-59.733333-26.832593-59.733334-59.733333s26.832593-59.733333 59.733334-59.733334 59.733333 26.832593 59.733333 59.733334-26.737778 59.733333-59.733333 59.733333zM593.161481 491.52c-6.921481 0-13.653333 3.318519-17.825185 9.481481-6.542222 9.765926-3.887407 23.04 5.973334 29.582223l134.352592 89.315555c9.765926 6.542222 23.04 3.887407 29.582222-5.973333 6.542222-9.765926 3.887407-23.04-5.973333-29.582222L604.918519 495.028148c-3.602963-2.37037-7.68-3.508148-11.757038-3.508148zM283.401481 192.094815c-4.93037 0-9.860741 1.706667-13.937777 5.214815-8.912593 7.68-9.955556 21.143704-2.275556 30.056296l93.771852 108.752593c7.68 8.912593 21.143704 9.955556 30.056296 2.275555 8.912593-7.68 9.955556-21.143704 2.275556-30.056296L299.614815 199.49037c-4.266667-4.835556-10.24-7.395556-16.213334-7.395555zM727.703704 163.081481c-5.404444 0-10.714074 1.991111-14.885926 6.068149l-150.755556 146.962963c-8.438519 8.248889-8.628148 21.712593-0.379259 30.151111 8.248889 8.438519 21.712593 8.628148 30.151111 0.379259l150.755556-146.962963c8.438519-8.248889 8.628148-21.712593 0.379259-30.151111-4.171852-4.266667-9.765926-6.447407-15.265185-6.447408z"  horiz-adv-x="1024" />

    
    <glyph glyph-name="icon_huabanfuben" unicode="&#58913;" d="M230.4 451.697778c-50.820741 0-92.16 41.054815-92.16 91.591111s41.339259 91.591111 92.16 91.591111 92.16-41.054815 92.16-91.591111-41.339259-91.591111-92.16-91.591111z m0 140.515555c-27.306667 0-49.493333-21.997037-49.493333-48.924444s22.186667-48.924444 49.493333-48.924445 49.493333 21.997037 49.493333 48.924445-22.186667 48.924444-49.493333 48.924444zM301.700741-0.474074c-50.820741 0-92.16 41.054815-92.16 91.591111s41.339259 91.591111 92.16 91.591111 92.16-41.054815 92.16-91.591111-41.339259-91.591111-92.16-91.591111z m0 140.515555c-27.306667 0-49.493333-21.997037-49.493334-48.924444 0-27.022222 22.186667-48.924444 49.493334-48.924444s49.493333 21.997037 49.493333 48.924444c-0.094815 27.022222-22.281481 48.924444-49.493333 48.924444zM793.979259 345.41037c-50.820741 0-92.16 41.054815-92.16 91.591111s41.339259 91.591111 92.16 91.591112 92.16-41.054815 92.16-91.591112-41.339259-91.591111-92.16-91.591111z m0 140.515556c-27.306667 0-49.493333-21.997037-49.493333-48.924445 0-27.022222 22.186667-48.924444 49.493333-48.924444s49.493333 21.997037 49.493334 48.924444c0 27.022222-22.281481 48.924444-49.493334 48.924445zM671.857778 68.645926c-41.813333 0-75.757037 33.848889-75.757037 75.377778s34.038519 75.377778 75.757037 75.377777 75.757037-33.848889 75.757037-75.377777-33.943704-75.377778-75.757037-75.377778z m0 108.088889c-18.299259 0-33.09037-14.696296-33.090371-32.711111s14.885926-32.711111 33.090371-32.711111 33.09037 14.696296 33.09037 32.711111c0 18.10963-14.885926 32.711111-33.09037 32.711111zM480.331852 203.851852c-89.78963 0-162.891852 72.628148-162.891852 161.848889s73.102222 161.848889 162.891852 161.848889 162.891852-72.628148 162.891852-161.848889S570.121481 203.851852 480.331852 203.851852z m0 281.031111c-66.275556 0-120.225185-53.475556-120.225185-119.182222S413.961481 246.518519 480.331852 246.518519s120.225185 53.475556 120.225185 119.182222-53.94963 119.182222-120.225185 119.182222zM589.842963 551.917037c-59.828148 0-108.468148 48.355556-108.468148 107.804444S530.014815 767.525926 589.842963 767.525926s108.468148-48.355556 108.468148-107.804445-48.734815-107.804444-108.468148-107.804444z m0 172.942222c-36.314074 0-65.801481-29.202963-65.801482-65.137778s29.487407-65.137778 65.801482-65.137777 65.801481 29.202963 65.801481 65.137777-29.582222 65.137778-65.801481 65.137778zM618.287407 375.751111c-9.765926 0-18.488889 6.731852-20.764444 16.592593-2.654815 11.472593 4.551111 22.945185 16.023704 25.505185L720.592593 442.216296c11.472593 2.654815 22.945185-4.551111 25.505185-16.023703s-4.551111-22.945185-16.023704-25.505186l-107.045926-24.367407c-1.517037-0.379259-3.128889-0.568889-4.740741-0.568889zM529.445926 476.16c-2.465185 0-5.025185 0.474074-7.49037 1.327407-10.998519 4.077037-16.687407 16.402963-12.515556 27.401482l30.151111 81.066667c4.077037 10.998519 16.402963 16.687407 27.401482 12.515555 10.998519-4.077037 16.687407-16.402963 12.515555-27.401481l-30.151111-81.066667c-3.128889-8.533333-11.282963-13.842963-19.911111-13.842963zM365.131852 426.192593c-4.266667 0-8.628148 1.327407-12.325926 3.982222l-77.179259 54.897778c-9.576296 6.826667-11.851852 20.100741-5.025186 29.771851 6.826667 9.576296 20.100741 11.851852 29.771852 5.025186l77.17926-54.897778c9.576296-6.826667 11.851852-20.100741 5.025185-29.771852-4.171852-5.878519-10.714074-9.007407-17.445926-9.007407zM342.85037 126.957037c-3.887407 0-7.86963 1.042963-11.377777 3.318519-9.955556 6.257778-12.894815 19.437037-6.637037 29.392592l62.198518 98.322963c6.257778 9.955556 19.437037 12.894815 29.392593 6.637037s12.894815-19.437037 6.637037-29.392592l-62.198519-98.322963c-4.077037-6.447407-10.998519-9.955556-18.014815-9.955556zM636.112593 163.460741c-5.973333 0-11.851852 2.465185-16.023704 7.30074l-64.474074 73.576297c-7.774815 8.817778-6.921481 22.376296 1.991111 30.151111 8.817778 7.774815 22.376296 6.921481 30.151111-1.991111l64.474074-73.576297c7.774815-8.817778 6.921481-22.376296-1.991111-30.151111-4.077037-3.508148-9.102222-5.30963-14.127407-5.309629z"  horiz-adv-x="1024" />

    
    <glyph glyph-name="1fuwenben" unicode="&#58924;" d="M612.6 812.1H948c6.2 0 11.3-5 11.3-11.3V757c0-6.2-5-11.3-11.3-11.3H612.6c-6.2 0-11.3 5-11.3 11.3V800.8c0 6.3 5 11.3 11.3 11.3zM601.3 559.6v43.9c0 6.2 5 11.3 11.3 11.3H948c6.2 0 11.3-5 11.3-11.3v-43.9c0-6.2-5-11.3-11.3-11.3H612.6c-6.3 0-11.3 5.1-11.3 11.3zM601.3 362.2v43.9c0 6.2 5 11.3 11.3 11.3H948c6.2 0 11.3-5 11.3-11.3v-43.9c0-6.2-5-11.3-11.3-11.3H612.6c-6.3 0-11.3 5.1-11.3 11.3zM64 164.8v43.9c0 6.2 5 11.3 11.3 11.3H948c6.2 0 11.3-5 11.3-11.3v-43.9c0-6.2-5-11.3-11.3-11.3H75.3c-6.3 0-11.3 5.1-11.3 11.3zM64-32.6v43.9c0 6.2 5 11.3 11.3 11.3H948c6.2 0 11.3-5 11.3-11.3v-43.9c0-6.2-5-11.3-11.3-11.3H75.3c-6.3 0-11.3 5-11.3 11.3zM64.2 740.7V801.4c0 6.2 5 11.3 11.3 11.3h425c6.2 0 11.3-5 11.3-11.3v-61.1c0-6.2-5-11.3-11.3-11.3l-425 0.3c-6.3 0.1-11.3 5.1-11.3 11.4zM243.2 731h89.5v-427.5c0-11.3-9.2-20.5-20.5-20.5h-48.6c-11.3 0-20.5 9.2-20.5 20.5V731z"  horiz-adv-x="1024" />

    


  </font>
</defs>
</svg>
