<?xml version="1.0" standalone="no"?>
<!DOCTYPE svg PUBLIC "-//W3C//DTD SVG 1.1//EN" "http://www.w3.org/Graphics/SVG/1.1/DTD/svg11.dtd" >
<!--
2013-9-30: Created.
-->
<svg>
<metadata>
Created by iconfont
</metadata>
<defs>

<font id="iconfont" horiz-adv-x="1024" >
  <font-face
    font-family="iconfont"
    font-weight="500"
    font-stretch="normal"
    units-per-em="1024"
    ascent="896"
    descent="-128"
  />
    <missing-glyph />
    
    <glyph glyph-name="x" unicode="x" horiz-adv-x="1001"
d="M281 543q-27 -1 -53 -1h-83q-18 0 -36.5 -6t-32.5 -18.5t-23 -32t-9 -45.5v-76h912v41q0 16 -0.5 30t-0.5 18q0 13 -5 29t-17 29.5t-31.5 22.5t-49.5 9h-133v-97h-438v97zM955 310v-52q0 -23 0.5 -52t0.5 -58t-10.5 -47.5t-26 -30t-33 -16t-31.5 -4.5q-14 -1 -29.5 -0.5
t-29.5 0.5h-32l-45 128h-439l-44 -128h-29h-34q-20 0 -45 1q-25 0 -41 9.5t-25.5 23t-13.5 29.5t-4 30v167h911zM163 247q-12 0 -21 -8.5t-9 -21.5t9 -21.5t21 -8.5q13 0 22 8.5t9 21.5t-9 21.5t-22 8.5zM316 123q-8 -26 -14 -48q-5 -19 -10.5 -37t-7.5 -25t-3 -15t1 -14.5
t9.5 -10.5t21.5 -4h37h67h81h80h64h36q23 0 34 12t2 38q-5 13 -9.5 30.5t-9.5 34.5q-5 19 -11 39h-368zM336 498v228q0 11 2.5 23t10 21.5t20.5 15.5t34 6h188q31 0 51.5 -14.5t20.5 -52.5v-227h-327z" />
    

    
    <glyph glyph-name="appreciate" unicode="&#58948;" d="M873.6 480h-188.8c12.8 44.8 28.8 115.2 19.2 188.8-6.4 60.8-41.6 105.6-92.8 124.8-38.4 12.8-76.8 6.4-99.2-16-25.6-25.6-38.4-76.8-51.2-128-9.6-35.2-16-70.4-28.8-89.6-32-54.4-102.4-76.8-115.2-80h-92.8c-19.2 0-32-12.8-32-32v-448c0-19.2 12.8-32 32-32h547.2c124.8 0 188.8 390.4 188.8 412.8 0 57.6-44.8 99.2-86.4 99.2zM771.2 35.2h-515.2v380.8h76.8c22.4 6.4 108.8 38.4 150.4 108.8 16 25.6 25.6 64 35.2 105.6 9.6 38.4 19.2 86.4 35.2 99.2 3.2 3.2 19.2 6.4 38.4 0 16-3.2 41.6-19.2 48-67.2 12.8-102.4-32-201.6-32-201.6-3.2-9.6-3.2-22.4 3.2-32 6.4-9.6 16-16 25.6-16h236.8c6.4 0 25.6-12.8 25.6-32-3.2-67.2-83.2-345.6-128-345.6zM96 480c-19.2 0-32-12.8-32-32v-448c0-19.2 12.8-32 32-32s32 12.8 32 32v448c0 19.2-12.8 32-32 32z"  horiz-adv-x="1024" />

    
    <glyph glyph-name="check" unicode="&#58949;" d="M887.904 597.792c-12.864 12.064-33.152 11.488-45.216-1.408L415.936 142.016l-233.12 229.696C170.208 384.128 149.952 384 137.536 371.392c-12.416-12.576-12.256-32.864 0.352-45.248l256.48-252.672c0.096-0.096 0.224-0.128 0.32-0.224 0.096-0.096 0.128-0.224 0.224-0.32 2.016-1.92 4.448-3.008 6.784-4.288 1.152-0.672 2.144-1.664 3.36-2.144 3.776-1.472 7.776-2.24 11.744-2.24 4.192 0 8.384 0.832 12.288 2.496 1.312 0.544 2.336 1.664 3.552 2.368 2.4 1.408 4.896 2.592 6.944 4.672 0.096 0.096 0.128 0.256 0.224 0.352 0.064 0.096 0.192 0.128 0.288 0.224l449.184 478.208C901.44 565.408 900.768 585.664 887.904 597.792z"  horiz-adv-x="1024" />

    
    <glyph glyph-name="close" unicode="&#58950;" d="M557.312 382.752l265.28 263.904c12.544 12.48 12.608 32.704 0.128 45.248-12.512 12.576-32.704 12.608-45.248 0.128l-265.344-263.936-263.04 263.84C236.64 704.416 216.384 704.48 203.84 692 191.328 679.52 191.296 659.264 203.776 646.72l262.976-263.776L201.6 119.2c-12.544-12.48-12.608-32.704-0.128-45.248 6.24-6.272 14.464-9.44 22.688-9.44 8.16 0 16.32 3.104 22.56 9.312l265.216 263.808 265.44-266.24c6.24-6.272 14.432-9.408 22.656-9.408 8.192 0 16.352 3.136 22.592 9.344 12.512 12.48 12.544 32.704 0.064 45.248L557.312 382.752z"  horiz-adv-x="1024" />

    
    <glyph glyph-name="edit" unicode="&#58953;" d="M800-64 224-64c-52.928 0-96 43.072-96 96L128 672c0 52.928 43.072 96 96 96l448 0c17.696 0 32-14.336 32-32s-14.304-32-32-32L224 704C206.368 704 192 689.632 192 672l0-640c0-17.664 14.368-32 32-32l576 0c17.664 0 32 14.336 32 32L832 544c0 17.664 14.304 32 32 32s32-14.336 32-32l0-512C896-20.928 852.928-64 800-64zM612 448c-8.192 0-16.384 3.136-22.624 9.376-12.512 12.512-12.512 32.736 0 45.248l318.016 318.016c12.512 12.512 32.736 12.512 45.248 0s12.512-32.736 0-45.248l-318.016-318.016C628.384 451.104 620.192 448 612 448zM480 448 288 448c-17.664 0-32 14.336-32 32s14.336 32 32 32l192 0c17.664 0 32-14.336 32-32S497.664 448 480 448zM672 256 288 256c-17.664 0-32 14.304-32 32s14.336 32 32 32l384 0c17.696 0 32-14.304 32-32S689.696 256 672 256z"  horiz-adv-x="1024" />

    
    <glyph glyph-name="emoji" unicode="&#58954;" d="M510.944-64c-247.04 0-448 200.96-448 448s200.992 448 448 448c247.008 0 448-200.96 448-448S757.984-64 510.944-64zM510.944 768c-211.744 0-384-172.256-384-384 0-211.744 172.256-384 384-384 211.744 0 384 172.256 384 384C894.944 595.744 722.688 768 510.944 768zM512 122.656c-89.184 0-171.904 40.32-226.912 110.624-10.88 13.92-8.448 34.016 5.472 44.896 13.888 10.912 34.016 8.48 44.928-5.472 42.784-54.688 107.136-86.048 176.512-86.048 70.112 0 134.88 31.904 177.664 87.552 10.784 14.016 30.848 16.672 44.864 5.888 14.016-10.784 16.672-30.88 5.888-44.864C685.408 163.68 602.144 122.656 512 122.656zM368 380.8c-26.528 0-48 21.472-48 48l0 64c0 26.528 21.472 48 48 48s48-21.472 48-48l0-64C416 402.304 394.496 380.8 368 380.8zM656 380.8c-26.496 0-48 21.472-48 48l0 64c0 26.528 21.504 48 48 48s48-21.472 48-48l0-64C704 402.304 682.496 380.8 656 380.8z"  horiz-adv-x="1024" />

    
    <glyph glyph-name="favorfill" unicode="&#58955;" d="M957.216 491.68c-3.808 11.36-13.632 19.68-25.504 21.504l-270.336 41.728-120.8 258.624C535.328 824.768 524.032 831.968 511.648 832c0 0-0.032 0-0.064 0-12.384 0-23.648-7.136-28.928-18.336l-121.856-258.016-270.72-40.8c-11.872-1.792-21.728-10.048-25.568-21.408-3.84-11.36-0.992-23.936 7.36-32.512l196.448-202.08L221.44-25.952c-1.984-12.096 3.104-24.256 13.12-31.328 9.984-7.072 23.168-7.808 33.888-1.92l241.824 133.024 241.312-133.856C756.416-62.656 761.76-64 767.104-64c0.256 0 0.48 0 0.64 0 17.696 0 32 14.304 32 32 0 3.968-0.704 7.776-2.016 11.296l-44.896 278.688 196.928 201.248C958.08 467.776 960.992 480.32 957.216 491.68z"  horiz-adv-x="1024" />

    
    <glyph glyph-name="favor" unicode="&#58956;" d="M767.104-63.936c-5.344 0-10.688 1.344-15.52 4.032l-241.312 133.856-241.824-133.024c-10.72-5.92-23.904-5.152-33.888 1.92-10.016 7.072-15.104 19.264-13.12 31.328l46.88 284.736-196.448 202.08c-8.256 8.512-11.168 20.928-7.456 32.192 3.68 11.296 13.312 19.616 25.024 21.632l155.072 26.592c17.632 2.944 33.984-8.736 36.96-26.144 2.976-17.408-8.704-33.952-26.144-36.96l-95.168-16.32 165.344-170.08c7.072-7.296 10.272-17.504 8.64-27.488l-38.816-235.68 199.616 109.824c9.632 5.312 21.344 5.312 30.944-0.064l199.168-110.464-38.016 235.776c-1.632 10.016 1.632 20.224 8.704 27.456l164.672 168.256-225.664 34.816c-10.56 1.632-19.584 8.416-24.128 18.08l-99.2 212.384-100.064-211.84c-7.552-16-26.624-22.816-42.624-15.264-15.968 7.552-22.816 26.624-15.264 42.624l129.152 273.44c5.312 11.2 16.576 18.336 28.928 18.336 0 0 0.032 0 0.064 0 12.416-0.032 23.68-7.232 28.928-18.464l120.8-258.624 270.336-41.728c11.872-1.824 21.696-10.144 25.504-21.504 3.776-11.36 0.864-23.936-7.488-32.48l-196.928-201.216 45.92-284.864c1.952-12.096-3.2-24.256-13.216-31.296C780-62.016 773.568-63.936 767.104-63.936z"  horiz-adv-x="1024" />

    
    <glyph glyph-name="loading" unicode="&#58959;" d="M923.424 448.256M512.064-67.296c-96.16 0-189.344 30.816-267.68 89.472-95.744 71.712-157.856 176.48-174.848 294.912-16.992 118.464 13.152 236.448 84.864 332.224 148.096 197.76 429.44 238.08 627.136 90.08 82.88-62.08 142.016-151.584 166.56-252 4.192-17.184-6.336-34.496-23.488-38.688-17.152-4.064-34.496 6.304-38.688 23.488-20.992 86.048-71.68 162.752-142.752 215.968C573.792 815.04 332.608 780.448 205.632 610.944c-61.472-82.08-87.296-183.2-72.704-284.736 14.56-101.536 67.808-191.296 149.888-252.736 169.536-127.04 410.688-92.384 537.6 77.12 33.216 44.384 56 94.112 67.648 147.84 3.776 17.28 20.896 28.256 38.048 24.512 17.28-3.744 28.256-20.8 24.512-38.048-13.664-62.784-40.224-120.832-78.976-172.672-71.712-95.744-176.48-157.888-294.976-174.848C555.072-65.76 533.504-67.296 512.064-67.296z"  horiz-adv-x="1024" />

    
    <glyph glyph-name="locationfill" unicode="&#58960;" d="M512 832C317.92 832 160 674.08 160 480c0-187.36 315.424-520.032 328.832-534.08C494.88-60.448 503.264-64 512-64c0.224 0 0.48 0 0.704 0 8.992 0 17.472 4.192 23.392 10.944l109.216 125.12C790.432 249.824 864 387.072 864 480 864 674.08 706.08 832 512 832zM512 320c-88.384 0-160 71.616-160 160s71.616 160 160 160 160-71.616 160-160S600.384 320 512 320z"  horiz-adv-x="1024" />

    
    <glyph glyph-name="location" unicode="&#58961;" d="M512 288c-105.888 0-192 86.112-192 192s86.112 192 192 192 192-86.112 192-192S617.888 288 512 288zM512 608c-70.592 0-128-57.408-128-128s57.408-128 128-128c70.592 0 128 57.408 128 128S582.592 608 512 608zM512-64c-7.936 0-15.904 2.944-22.08 8.832-12.768 12.224-13.248 32.48-1.056 45.248C575.392 80.8 800 345.664 800 480c0 158.784-129.184 288-288 288-158.784 0-288-129.216-288-288 0-75.616 72.544-206.08 204.256-367.424 11.2-13.728 9.152-33.888-4.544-45.024-13.696-11.168-33.888-9.152-45.024 4.544C233.568 249.824 160 387.072 160 480 160 674.08 317.92 832 512 832s352-157.92 352-352c0-187.36-315.424-520.032-328.832-534.08C528.864-60.672 520.448-64 512-64z"  horiz-adv-x="1024" />

    
    <glyph glyph-name="phone" unicode="&#58962;" d="M368.992 65.696l0-1.184c-6.496 0-11.264-0.512-14.048-0.512l-3.296 0c-69.248 0-124.992 55.36-126.944 124.512-1.056 33.952 11.2 66.816 34.464 91.488 23.264 24.672 54.72 39.136 88.64 40.096 0.32 0 3.744 0.192 4.032 0.192 26.592 0 52.064-8.32 73.984-24.288 30.752-10.848 61.824 4.32 92.192 45.024 30.208 40.416 36.576 72.448 18.88 95.232-6.304 4.544-12.352 9.92-18.368 16.32-1.056 1.024-2.048 2.144-2.976 3.296-19.872 22.432-31.264 50.816-32.16 80.064-1.92 70.176 53.376 128.8 123.232 130.784 0.32 0 3.584 0.064 3.904 0.064 58.784 0 110.752-41.664 123.552-99.072 10.336-31.872 36.704-158.176-90.176-327.84C526.528 82.688 412.576 65.696 368.992 65.696zM364.896 129.792c18.976-0.416 118.592 2.24 227.616 148.416 111.36 148.928 86.016 253.376 79.776 272.832-7.104 31.168-32.8 51.776-61.888 51.776-36.704-1.024-64.096-30.144-63.168-64.992 0.576-18.496 9.312-31.968 16.544-39.968 0.224-0.256 0.48-0.544 0.672-0.8 4.032-4.352 7.808-7.648 11.552-10.08 2.368-1.568 4.576-3.424 6.432-5.568 19.616-22.112 57.6-83.84-13.28-178.624-45.792-61.28-92.704-74.112-124-74.144-16.096 0-32.096 3.296-47.52 9.728-2.656 1.12-5.184 2.592-7.456 4.384-7.968 6.272-21.088 13.76-38.432 13.76-18.976-0.544-34.56-7.52-46.048-19.712-11.52-12.256-17.6-28.288-17.088-45.12 0.96-34.4 28.64-61.248 62.976-61.248 0.16 0 0.192-0.032 0.064-0.064 1.184 0.192 2.496 0.352 3.264 0.416C358.336 130.816 361.696 130.56 364.896 129.792zM512-67.328c-60.224 0-118.624 11.744-173.6 34.88-16.288 6.88-23.936 25.632-17.056 41.92 6.848 16.32 25.632 23.904 41.92 17.088 47.072-19.808 97.12-29.888 148.768-29.888 211.744 0 384 172.256 384 384 0 211.744-172.256 384-384 384-211.744 0-384-172.256-384-384 0-72.384 20.256-142.88 58.56-203.904 9.376-14.976 4.864-34.72-10.08-44.096-14.976-9.408-34.72-4.896-44.128 10.08C87.616 214.016 64 296.288 64 380.672c0 247.008 200.96 448 448 448s448-200.96 448-448C960 133.664 759.04-67.328 512-67.328z"  horiz-adv-x="1024" />

    
    <glyph glyph-name="roundcheckfill" unicode="&#58966;" d="M512 830.016C266.08 830.016 65.984 629.92 65.984 384c0-245.952 200.064-446.016 446.016-446.016 245.952 0 446.016 200.064 446.016 446.016C958.016 629.92 757.952 830.016 512 830.016zM727.232 457.568l-256.224-259.008c-0.064-0.064-0.192-0.096-0.256-0.192-0.096-0.064-0.096-0.192-0.192-0.256-2.048-1.984-4.576-3.2-6.944-4.544-1.184-0.672-2.144-1.696-3.392-2.176-3.84-1.536-7.904-2.336-11.968-2.336-4.096 0-8.224 0.8-12.096 2.4-1.28 0.544-2.304 1.632-3.52 2.304-2.368 1.344-4.832 2.528-6.88 4.544-0.064 0.064-0.096 0.192-0.16 0.256-0.064 0.096-0.192 0.096-0.256 0.192l-126.016 129.504c-12.32 12.672-12.032 32.928 0.64 45.248 12.672 12.288 32.896 12.064 45.248-0.64l103.264-106.112 233.28 235.84c12.416 12.576 32.704 12.704 45.248 0.256C739.52 490.4 739.648 470.144 727.232 457.568z"  horiz-adv-x="1024" />

    
    <glyph glyph-name="roundcheck" unicode="&#58967;" d="M512-64C264.96-64 64 136.96 64 384S264.96 832 512 832s448-200.96 448-448S759.04-64 512-64zM512 767.712C300.416 767.712 128.288 595.584 128.288 384c0-211.552 172.128-383.712 383.712-383.712 211.552 0 383.712 172.16 383.712 383.712C895.712 595.584 723.552 767.712 512 767.712zM726.976 502.816c-12.544 12.448-32.832 12.32-45.248-0.256l-233.28-235.84-103.264 106.112c-12.352 12.704-32.608 12.928-45.248 0.64-12.672-12.32-12.96-32.608-0.64-45.248l126.016-129.504c0.064-0.096 0.192-0.096 0.256-0.192 0.064-0.064 0.096-0.192 0.16-0.256 2.016-1.984 4.512-3.2 6.88-4.544 1.248-0.672 2.24-1.792 3.52-2.304 3.872-1.6 8-2.4 12.096-2.4 4.064 0 8.128 0.8 11.968 2.336 1.248 0.512 2.208 1.536 3.392 2.176 2.4 1.344 4.896 2.528 6.944 4.544 0.064 0.064 0.096 0.192 0.192 0.256 0.064 0.096 0.16 0.128 0.256 0.192l256.224 259.008C739.648 470.144 739.52 490.4 726.976 502.816z"  horiz-adv-x="1024" />

    
    <glyph glyph-name="roundclosefill" unicode="&#58968;" d="M512 832C264.992 832 64 631.04 64 384s200.96-448 448-448c247.008 0 448 200.96 448 448S759.04 832 512 832zM694.752 246.016c12.48-12.544 12.448-32.768-0.064-45.248-6.24-6.208-14.4-9.344-22.592-9.344-8.224 0-16.416 3.136-22.656 9.408l-137.6 138.016-138.048-136.576c-6.24-6.144-14.368-9.248-22.496-9.248-8.256 0-16.48 3.168-22.752 9.504-12.416 12.576-12.32 32.8 0.256 45.248l137.888 136.384-137.376 137.824c-12.48 12.512-12.448 32.768 0.064 45.248 12.512 12.512 32.736 12.448 45.248-0.064l137.568-137.984 138.048 136.576c12.544 12.448 32.832 12.32 45.248-0.256 12.448-12.576 12.32-32.832-0.256-45.248l-137.888-136.384L694.752 246.016z"  horiz-adv-x="1024" />

    
    <glyph glyph-name="roundclose" unicode="&#58969;" d="M512-64C264.96-64 64 136.96 64 384S264.96 832 512 832s448-200.96 448-448S759.04-64 512-64zM512 767.712C300.416 767.712 128.288 595.584 128.288 384c0-211.552 172.128-383.712 383.712-383.712 211.552 0 383.712 172.16 383.712 383.712C895.712 595.584 723.552 767.712 512 767.712zM557.056 382.624l138.368 136.864c12.576 12.416 12.672 32.672 0.256 45.248-12.416 12.576-32.704 12.672-45.248 0.256l-138.56-137.024-136.448 136.864c-12.512 12.512-32.736 12.576-45.248 0.064-12.512-12.48-12.544-32.736-0.064-45.248l136.256-136.672-137.376-135.904c-12.576-12.448-12.672-32.672-0.256-45.248 6.272-6.336 14.496-9.504 22.752-9.504 8.128 0 16.256 3.104 22.496 9.248l137.568 136.064 138.688-139.136c6.24-6.272 14.432-9.408 22.656-9.408 8.192 0 16.352 3.136 22.592 9.344 12.512 12.48 12.544 32.704 0.064 45.248L557.056 382.624z"  horiz-adv-x="1024" />

    
    <glyph glyph-name="roundrightfill" unicode="&#58970;" d="M512 832C264.96 832 64 631.04 64 384s200.96-448 448-448 448 200.96 448 448S759.04 832 512 832zM661.76 360.032l-160.256-158.496c-6.24-6.144-14.368-9.248-22.496-9.248-8.256 0-16.512 3.168-22.752 9.504-12.416 12.576-12.32 32.8 0.256 45.248l137.408 135.904-136.288 136.672c-12.48 12.512-12.448 32.768 0.064 45.248 12.512 12.512 32.768 12.448 45.248-0.064l158.912-159.36c0.032-0.032 0.032-0.064 0.064-0.096s0.064-0.032 0.096-0.064c2.944-2.976 5.056-6.432 6.592-10.048 0.064-0.128 0.224-0.256 0.256-0.384C673.6 383.232 671.232 369.408 661.76 360.032z"  horiz-adv-x="1024" />

    
    <glyph glyph-name="roundright" unicode="&#58971;" d="M512-64C264.96-64 64 136.96 64 384S264.96 832 512 832s448-200.96 448-448S759.04-64 512-64zM512 768C300.256 768 128 595.744 128 384c0-211.744 172.256-384 384-384 211.744 0 384 172.256 384 384C896 595.744 723.744 768 512 768zM668.832 394.848c-0.032 0.128-0.192 0.256-0.256 0.384-1.536 3.616-3.648 7.072-6.592 10.048-0.032 0.032-0.064 0.032-0.096 0.064s-0.032 0.064-0.064 0.096l-158.912 159.36c-12.48 12.512-32.736 12.576-45.248 0.064-12.512-12.48-12.544-32.736-0.064-45.248l136.288-136.672-137.408-135.904c-12.576-12.448-12.672-32.672-0.256-45.248 6.24-6.336 14.496-9.504 22.752-9.504 8.128 0 16.256 3.104 22.496 9.248l160.256 158.496C671.232 369.408 673.6 383.232 668.832 394.848z"  horiz-adv-x="1024" />

    
    <glyph glyph-name="search" unicode="&#58972;" d="M953.504-12.256l-152.608 163.296c61.856 74.496 95.872 167.36 95.872 265.12 0 229.344-186.624 415.968-416.032 415.968-229.344 0-415.968-186.592-415.968-415.968s186.624-415.968 416-415.968c60.096 0.032 118.048 12.576 172.224 37.248 16.096 7.328 23.2 26.304 15.872 42.368-7.328 16.128-26.4 23.264-42.368 15.872-45.856-20.864-94.88-31.456-145.76-31.488-194.08 0-351.968 157.888-351.968 351.968 0 194.048 157.888 351.968 351.968 351.968 194.112 0 352.032-157.888 352.032-351.968 0-91.36-34.848-177.92-98.08-243.744-12.256-12.736-11.84-32.992 0.864-45.248 0.96-0.928 2.208-1.28 3.296-2.08 0.864-1.28 1.312-2.752 2.4-3.904l165.504-177.088c6.272-6.752 14.816-10.144 23.36-10.144 7.84 0 15.68 2.848 21.856 8.64C964.864-45.408 965.568-25.152 953.504-12.256z"  horiz-adv-x="1024" />

    
    <glyph glyph-name="taxi" unicode="&#58973;" d="M223.968 255.52c0 35.328 28.672 63.968 64 63.968 35.36 0 64-28.64 64-63.968s-28.64-64-64-64C252.64 191.52 223.968 220.192 223.968 255.52M672.608 255.52c0 35.328 28.672 63.968 64 63.968s64-28.64 64-63.968-28.672-64-64-64S672.608 220.192 672.608 255.52M704.992 384l-384 0c-17.664 0-32 14.336-32 32s14.336 32 32 32l384 0c17.696 0 32-14.336 32-32S722.688 384 704.992 384zM896 443.808l0 5.472c0 2.112-0.224 4.224-0.64 6.304l-32 159.36c-0.544 2.624-1.376 5.152-2.528 7.552C839.264 667.424 783.264 704 736 704l-35.2 0c-0.224 2.112 0 4.192-0.672 6.304l-19.296 61.376C673.28 805.728 638.176 832 599.2 832l-174.016 0c-38.88 0-73.984-26.24-80.96-57.664l-19.968-63.744C323.584 708.512 323.808 706.112 323.584 704L288 704C242.528 704 183.712 677.696 162.016 619.904 161.44 618.272 160.96 616.64 160.64 614.944l-32-159.68C128.16 452.96 127.968 450.656 128 448.32l0.096-4.768C90.752 430.272 64 394.816 64 353.312l0-195.232C64 105.312 106.176 64 160 64l32 0 0-1.984c0.064-70.528 57.472-127.904 128-127.904s127.936 57.376 128 127.936L448 64l128 0 0-1.984c0.032-70.528 57.472-127.904 128-127.904s127.968 57.376 128 127.936L832 64l32 0c53.856 0 96 41.312 96 94.048l0 195.232C960 395.008 933.248 430.624 896 443.808zM405.952 757.696C406.624 760.672 414.592 768 425.184 768l174.016 0c10.624 0 18.56-7.296 19.904-12.896L635.008 704l-245.664 0L405.952 757.696zM896 158.048C896 140.928 882.24 128 864 128l-64 0c-17.696 0-32-14.304-32-32l0-33.92c-0.032-35.296-28.704-63.968-64-63.968s-63.968 28.672-64 63.936L640 96c0 17.696-14.304 32-32 32l-192 0c-17.664 0-32-14.304-32-32l0-33.92c-0.032-35.296-28.736-63.968-64-63.968s-63.968 28.672-64 63.936L256 96c0 17.696-14.336 32-32 32L160 128c-18.24 0-32 12.928-32 30.048l0 195.232c0 17.568 14.656 31.84 32.672 31.84 8.608 0 16.832 3.456 22.848 9.6s9.312 14.464 9.152 23.04l-0.608 28.32 30.752 153.408C234.016 626.112 263.776 640 288 640l448 0c21.472 0 53.28-20.736 65.536-42.08L832 446.112l0-28.8c0-17.664 14.304-32 32-32 17.664 0 32-14.368 32-32L896 158.048z"  horiz-adv-x="1024" />

    
    <glyph glyph-name="timefill" unicode="&#58974;" d="M512 832C264.96 832 64 631.04 64 384s200.96-448 448-448 448 200.96 448 448S759.04 832 512 832zM671.264 320l-191.104 0C462.496 320 448 334.464 448 352.16L448 606.912c0 17.664 14.336 32 32 32s32-14.336 32-32L512 384l159.264 0c17.696 0 32-14.336 32-32C703.264 334.304 688.928 320 671.264 320z"  horiz-adv-x="1024" />

    
    <glyph glyph-name="time" unicode="&#58975;" d="M512 832C264.96 832 64 631.04 64 384s200.96-448 448-448 448 200.96 448 448S759.04 832 512 832zM512 0.288c-211.584 0-383.712 172.16-383.712 383.712C128.288 595.584 300.416 767.712 512 767.712c211.552 0 383.712-172.128 383.712-383.712C895.712 172.448 723.552 0.288 512 0.288zM671.968 384 512 384 512 607.936c0 17.76-14.24 32.128-32 32.128s-32-14.4-32-32.128L448 352c0-17.76 14.272-32 32-32l191.968 0c17.76 0 32.128 14.24 32.128 32S689.728 384 671.968 384z"  horiz-adv-x="1024" />

    
    <glyph glyph-name="unfold" unicode="&#58977;" d="M890.336 565.088c-12.576 12.416-32.8 12.352-45.248-0.192L517.248 234.048 184.832 563.488c-12.576 12.448-32.8 12.352-45.28-0.192-12.448-12.576-12.352-32.832 0.192-45.28l353.312-350.112c0.544-0.544 1.248-0.672 1.792-1.184 0.128-0.128 0.16-0.288 0.288-0.416 6.24-6.176 14.4-9.28 22.528-9.28 8.224 0 16.48 3.168 22.72 9.472l350.112 353.312C902.976 532.384 902.88 552.64 890.336 565.088z"  horiz-adv-x="1024" />

    
    <glyph glyph-name="warnfill" unicode="&#58978;" d="M942.656 126.624 602.112 736.416c-22.144 39.712-55.104 62.496-90.304 62.496-35.232 0-68.16-22.784-90.368-62.528L81.312 126.656c-22.016-39.456-24.256-79.456-6.112-110.4C93.344-14.624 129.664-32 174.88-32l674.24 0c45.184 0 81.536 17.376 99.648 48.256C966.944 47.2 964.672 87.168 942.656 126.624zM480 576c0 17.664 14.336 32 32 32s32-14.336 32-32l0-288c0-17.696-14.336-32-32-32s-32 14.304-32 32L480 576zM512 63.872c-26.528 0-48 21.504-48 48s21.472 48 48 48 48-21.504 48-48S538.528 63.872 512 63.872z"  horiz-adv-x="1024" />

    
    <glyph glyph-name="warn" unicode="&#58979;" d="M849.12-32.704 174.88-32.704c-45.216 0-81.536 17.728-99.68 48.64-18.144 30.912-15.936 71.296 6.08 110.752L421.472 736.352c22.144 39.744 55.072 62.528 90.304 62.528s68.128-22.752 90.336-62.464l340.544-609.792c22.016-39.456 24.288-79.808 6.112-110.72C930.656-15.008 894.304-32.704 849.12-32.704zM511.808 734.88c-11.2 0-24.032-11.104-34.432-29.696L137.184 95.456c-10.656-19.136-13.152-36.32-6.784-47.168 6.368-10.816 22.592-17.024 44.48-17.024l674.24 0c21.92 0 38.112 6.176 44.48 17.024 6.336 10.816 3.872 28-6.816 47.136L546.24 705.184C535.872 723.776 522.976 734.88 511.808 734.88zM512 256c-17.664 0-32 14.304-32 32l0 288c0 17.664 14.336 32 32 32s32-14.336 32-32l0-288C544 270.304 529.664 256 512 256zM512 143.872m-48 0a1.5 1.5 0 1 0 96 0 1.5 1.5 0 1 0-96 0Z"  horiz-adv-x="1024" />

    
    <glyph glyph-name="camerafill" unicode="&#58980;" d="M864 704 512 704c0 52.928-43.072 96-96 96l-64 0C299.072 800 256 756.928 256 704L160 704C107.072 704 64 660.928 64 608l0-512c0-52.928 43.072-96 96-96l704 0c52.928 0 96 43.072 96 96L960 608C960 660.928 916.928 704 864 704zM512 160c-105.888 0-192 86.112-192 192s86.112 192 192 192 192-86.112 192-192S617.888 160 512 160zM816 480c-26.496 0-48 21.504-48 48 0 26.496 21.504 48 48 48 26.496 0 48-21.504 48-48C864 501.504 842.496 480 816 480z"  horiz-adv-x="1024" />

    
    <glyph glyph-name="camera" unicode="&#58981;" d="M512 160c-105.888 0-192 86.112-192 192s86.112 192 192 192 192-86.112 192-192S617.888 160 512 160zM512 480c-70.592 0-128-57.408-128-128 0-70.592 57.408-128 128-128 70.592 0 128 57.408 128 128C640 422.592 582.592 480 512 480zM864 0 160 0c-52.928 0-96 43.072-96 96L64 608c0 52.928 43.072 96 96 96l96 0c17.664 0 32-14.336 32-32S273.664 640 256 640L160 640C142.368 640 128 625.632 128 608l0-512c0-17.664 14.368-32 32-32l704 0c17.664 0 32 14.336 32 32L896 608c0 17.632-14.336 32-32 32L512 640c-17.664 0-32 14.336-32 32s14.336 32 32 32l352 0c52.928 0 96-43.072 96-96l0-512C960 43.072 916.928 0 864 0zM816 560m-48 0a1.5 1.5 0 1 0 96 0 1.5 1.5 0 1 0-96 0ZM480 768c0-17.664-14.336-32-32-32l-128 0C302.336 736 288 750.336 288 768l0 0c0 17.664 14.336 32 32 32l128 0C465.664 800 480 785.664 480 768L480 768z"  horiz-adv-x="1024" />

    
    <glyph glyph-name="commentfill" unicode="&#58982;" d="M832 768 192 768C139.072 768 96 724.928 96 672l0-512c0-52.928 43.072-96 96-96l210.752 0 86.624-86.624C495.616-28.864 503.808-32 512-32s16.384 3.136 22.624 9.376L621.248 64 832 64c52.928 0 96 43.072 96 96L928 672C928 724.928 884.928 768 832 768zM336 384C309.536 384 288 405.536 288 432S309.536 480 336 480s48-21.536 48-48S362.464 384 336 384zM528 384c-26.464 0-48 21.536-48 48s21.536 48 48 48 48-21.536 48-48S554.464 384 528 384zM720 384c-26.464 0-48 21.536-48 48s21.536 48 48 48 48-21.536 48-48S746.464 384 720 384z"  horiz-adv-x="1024" />

    
    <glyph glyph-name="comment" unicode="&#58983;" d="M512-32c-8.192 0-16.384 3.136-22.624 9.376l-96 96c-12.512 12.512-12.512 32.736 0 45.248s32.736 12.512 45.248 0L512 45.248l73.376 73.376C591.36 124.64 599.488 128 608 128l224 0c17.664 0 32 14.336 32 32L864 672c0 17.632-14.336 32-32 32L192 704C174.368 704 160 689.632 160 672l0-512c0-17.664 14.368-32 32-32l96 0c17.664 0 32-14.304 32-32s-14.336-32-32-32L192 64c-52.928 0-96 43.072-96 96L96 672c0 52.928 43.072 96 96 96l640 0c52.928 0 96-43.072 96-96l0-512c0-52.928-43.072-96-96-96l-210.752 0-86.624-86.624C528.384-28.864 520.192-32 512-32zM336 384C309.536 384 288 405.536 288 432S309.536 480 336 480s48-21.536 48-48S362.464 384 336 384zM528 384c-26.464 0-48 21.536-48 48s21.536 48 48 48 48-21.536 48-48S554.464 384 528 384zM720 384c-26.464 0-48 21.536-48 48s21.536 48 48 48 48-21.536 48-48S746.464 384 720 384z"  horiz-adv-x="1024" />

    
    <glyph glyph-name="likefill" unicode="&#58984;" d="M736 768c-65.952 0-128.576-25.024-176.384-70.464-4.576-4.32-28.672-28.736-47.328-47.68L464.96 696.96C417.12 742.784 354.272 768 288 768c-141.152 0-256-114.848-256-256 0-82.432 41.184-144.288 76.48-182.496l316.896-320.128C450.464-15.68 478.304-32 512-32c33.696 0 61.568 16.32 86.752 41.504l316.736 320 2.208 2.464C955.904 379.616 992 424.608 992 512 992 653.152 877.152 768 736 768z"  horiz-adv-x="1024" />

    
    <glyph glyph-name="like" unicode="&#58985;" d="M512-32c-28.928 0-57.92 12.672-86.624 41.376L106.272 332C68.064 379.648 32 424.672 32 512c0 141.152 114.848 256 256 256 53.088 0 104-16.096 147.296-46.592 14.432-10.176 17.92-30.144 7.712-44.608-10.176-14.432-30.08-17.92-44.608-7.712C366.016 691.936 327.808 704 288 704c-105.888 0-192-86.112-192-192 0-61.408 20.288-90.112 59.168-138.688l315.584-318.816C486.72 38.528 499.616 32.192 512 32c12.704-0.192 24.928 6.176 41.376 22.624l316.672 319.904C896.064 402.72 928 450.304 928 512c0 105.888-86.112 192-192 192-48.064 0-94.08-17.856-129.536-50.272l-134.08-134.112c-12.512-12.512-32.736-12.512-45.248 0s-12.512 32.736 0 45.248l135.104 135.136C610.56 744.192 671.904 768 736 768c141.152 0 256-114.848 256-256 0-82.368-41.152-144.288-75.68-181.696l-317.568-320.8C569.952-19.328 540.96-32 512-32z"  horiz-adv-x="1024" />

    
    <glyph glyph-name="notificationfill" unicode="&#58986;" d="M526.432-28.064c-20.96 0-44.16 12.576-68.96 37.344L274.752 192 192 192c-52.928 0-96 43.072-96 96l0 192c0 52.928 43.072 96 96 96l82.752 0 182.624 182.624c24.576 24.576 47.744 37.024 68.864 37.024C549.184 795.648 576 780 576 736l0-704C576-12.352 549.28-28.064 526.432-28.064zM687.584 165.632c-6.464 0-12.992 1.952-18.656 6.016-14.336 10.304-17.632 30.304-7.328 44.672l12.672 17.344C707.392 278.56 736 317.376 736 384c0 69.024-25.344 102.528-57.44 144.928-5.664 7.456-11.328 15.008-16.928 22.784-10.304 14.336-7.04 34.336 7.328 44.672 14.368 10.368 34.336 7.04 44.672-7.328 5.248-7.328 10.656-14.464 15.968-21.504C764.224 521.792 800 474.496 800 384c0-87.648-39.392-141.12-74.144-188.32l-12.224-16.736C707.36 170.24 697.568 165.632 687.584 165.632zM796.448 56.992c-7.488 0-15.04 2.624-21.088 7.936-13.28 11.648-14.624 31.872-2.976 45.152C836.608 183.328 896 267.136 896 384c0 116.864-59.392 200.704-123.616 273.888-11.648 13.312-10.304 33.504 2.976 45.184 13.216 11.648 33.44 10.336 45.152-2.944C889.472 621.44 960 522.4 960 384s-70.528-237.472-139.488-316.096C814.144 60.672 805.312 56.992 796.448 56.992z"  horiz-adv-x="1024" />

    
    <glyph glyph-name="notification" unicode="&#58987;" d="M526.432-28.064c-20.96 0-44.16 12.576-68.96 37.344L274.752 192 192 192c-52.928 0-96 43.072-96 96l0 192c0 52.928 43.072 96 96 96l82.752 0 182.624 182.624c24.576 24.576 47.744 37.024 68.864 37.024C549.184 795.648 576 780 576 736l0-704C576-12.352 549.28-28.064 526.432-28.064zM192 512c-17.632 0-32-14.368-32-32l0-192c0-17.664 14.368-32 32-32l96 0c8.48 0 16.64-3.36 22.624-9.376l192.064-192.096c3.392-3.36 6.496-6.208 9.312-8.576L512 721.984c-2.784-2.336-5.952-5.184-9.376-8.608l-192-192C304.64 515.36 296.48 512 288 512L192 512zM687.584 165.632c-6.464 0-12.992 1.952-18.656 6.016-14.336 10.304-17.632 30.304-7.328 44.672l12.672 17.344C707.392 278.56 736 317.376 736 384c0 69.024-25.344 102.528-57.44 144.928-5.664 7.456-11.328 15.008-16.928 22.784-10.304 14.336-7.04 34.336 7.328 44.672 14.368 10.368 34.336 7.04 44.672-7.328 5.248-7.328 10.656-14.464 15.968-21.504C764.224 521.792 800 474.496 800 384c0-87.648-39.392-141.12-74.144-188.32l-12.224-16.736C707.36 170.24 697.568 165.632 687.584 165.632zM796.448 56.992c-7.488 0-15.04 2.624-21.088 7.936-13.28 11.648-14.624 31.872-2.976 45.152C836.608 183.328 896 267.136 896 384c0 116.864-59.392 200.704-123.616 273.888-11.648 13.312-10.304 33.504 2.976 45.184 13.216 11.648 33.44 10.336 45.152-2.944C889.472 621.44 960 522.4 960 384s-70.528-237.472-139.488-316.096C814.144 60.672 805.312 56.992 796.448 56.992z"  horiz-adv-x="1024" />

    
    <glyph glyph-name="order" unicode="&#58988;" d="M332.256 733.568c-12 4.992-25.728 2.24-34.88-6.944l-192-192c-12.512-12.512-12.512-32.736 0-45.248s32.736-12.512 45.248 0L288 626.752 288 96c0-17.696 14.336-32 32-32s32 14.304 32 32L352 704C352 716.928 344.192 728.608 332.256 733.568zM918.624 278.624c-12.512 12.512-32.736 12.512-45.248 0L768 173.248 768 704c0 17.664-14.304 32-32 32s-32-14.336-32-32l0-608c0-12.928 7.776-24.64 19.744-29.568C727.712 64.768 731.872 64 736 64c8.32 0 16.512 3.264 22.624 9.376l160 160C931.136 245.888 931.136 266.112 918.624 278.624z"  horiz-adv-x="1024" />

    
    <glyph glyph-name="samefill" unicode="&#58989;" d="M352 544l128 0 0-128-128 0 0 128ZM918.624 22.624l-145.664 145.664C829.632 235.232 864 321.632 864 416c0 211.744-172.256 384-384 384C268.256 800 96 627.744 96 416c0-211.744 172.256-384 384-384 94.368 0 180.768 34.368 247.712 91.04l145.664-145.664C879.616-28.864 887.808-32 896-32s16.384 3.136 22.624 9.376C931.136-10.112 931.136 10.112 918.624 22.624zM288 384l0 192c0 17.664 14.336 32 32 32l192 0c17.664 0 32-14.336 32-32l0-192c0-17.664-14.336-32-32-32l-192 0C302.336 352 288 366.336 288 384zM640 288c0-17.696-14.304-32-32-32l-160 0c-17.664 0-32 14.304-32 32s14.336 32 32 32l128 0 0 128c0 17.664 14.304 32 32 32s32-14.336 32-32L640 288z"  horiz-adv-x="1024" />

    
    <glyph glyph-name="same" unicode="&#58990;" d="M512 352l-192 0c-17.664 0-32 14.336-32 32l0 192c0 17.664 14.336 32 32 32l192 0c17.664 0 32-14.336 32-32l0-192C544 366.336 529.664 352 512 352zM352 416l128 0 0 128-128 0L352 416zM608 256l-160 0c-17.664 0-32 14.304-32 32s14.336 32 32 32l128 0 0 128c0 17.664 14.304 32 32 32s32-14.336 32-32l0-160C640 270.304 625.696 256 608 256zM896-32c-8.192 0-16.384 3.136-22.624 9.376l-167.104 167.104c-12.512 12.512-12.512 32.736 0 45.248C766.72 250.176 800 330.56 800 416c0 176.448-143.552 320-320 320C303.552 736 160 592.448 160 416c0-176.448 143.552-320 320-320 39.328 0 77.76 7.072 114.176 20.96 16.448 6.24 35.008-1.984 41.312-18.496 6.272-16.512-1.984-35.008-18.496-41.312C573.28 40.48 527.2 32 480 32 268.256 32 96 204.256 96 416 96 627.744 268.256 800 480 800c211.744 0 384-172.256 384-384 0-91.808-32-178.72-90.784-247.968l145.408-145.408c12.512-12.512 12.512-32.736 0-45.248C912.384-28.864 904.192-32 896-32z"  horiz-adv-x="1024" />

    
    <glyph glyph-name="deliver" unicode="&#58993;" d="M352 320 224 320c-17.664 0-32 14.304-32 32 0 17.664 14.336 32 32 32l96 0 0 96c0 17.664 14.336 32 32 32s32-14.336 32-32l0-128C384 334.304 369.664 320 352 320zM702.144 229.12c-61.952 0-113.664-43.296-127.296-101.12l-123.808 0c-13.568 57.888-65.344 101.216-127.328 101.216-72.288 0-131.104-58.784-131.104-131.072 0-72.352 58.816-131.232 131.104-131.232 60.384 0 110.848 41.344 125.984 97.056l126.432 0c15.104-55.712 65.568-96.992 126.016-96.992 72.224 0 131.008 58.784 131.008 131.072S774.368 229.12 702.144 229.12zM323.744 30.944c-36.992 0-67.104 30.144-67.104 67.232 0 36.96 30.08 67.072 67.104 67.072 36.992 0 67.072-30.08 67.072-67.072C390.816 61.088 360.736 30.944 323.744 30.944zM702.144 31.008c-36.96 0-67.072 30.08-67.072 67.072s30.08 67.072 67.072 67.072c36.928 0 67.008-30.08 67.008-67.072S739.104 31.008 702.144 31.008zM864.032 800 399.744 800C355.776 800 320 764.224 320 720.256l0-92.512L125.344 529.92c-1.376-0.704-2.72-1.504-4-2.4-36.096-25.376-56-64.96-56-111.52l0-321.984c0-17.696 14.336-32 32-32s32 14.304 32 32L129.344 416c0 25.024 9.088 44.512 27.04 57.888l209.984 105.504c1.44 0.704 2.368 1.984 3.648 2.88 1.888 1.312 3.776 2.496 5.312 4.16 1.408 1.536 2.336 3.328 3.424 5.056 1.088 1.728 2.24 3.328 2.976 5.28 0.8 2.176 1.024 4.416 1.344 6.688C383.328 605.024 384 606.4 384 608L384 720.256C384 728.928 391.072 736 399.744 736l464.288 0C881.664 736 896 721.408 896 703.488L896 96c0-17.696 14.304-32 32-32s32 14.304 32 32L960 703.488C960 756.704 916.928 800 864.032 800z"  horiz-adv-x="1024" />

    
    <glyph glyph-name="evaluate" unicode="&#58994;" d="M405.536-36.128c-8.8 0-17.568 3.584-23.904 10.688-83.232 93.216-217.856 94.112-220.64 94.112-0.096 0-0.096 0-0.192 0-17.568 0-31.904 14.176-32.032 31.744-0.128 17.664 14.016 32.064 31.648 32.256 6.656 0.352 165.664 0.192 268.96-115.488 11.776-13.184 10.624-33.408-2.56-45.184C420.736-33.44 413.12-36.128 405.536-36.128zM620.128-36.064c-7.776 0-15.584 2.816-21.76 8.544-12.96 12-13.76 32.256-1.728 45.216 106.976 115.52 262.752 115.392 268.896 115.136 17.696-0.192 31.872-14.656 31.68-32.32-0.192-17.568-14.464-31.68-32-31.68-0.096 0-0.16 0-0.256 0L864.96 68.832c-2.656 0-134.56-0.864-221.376-94.624C637.312-32.64 628.704-36.064 620.128-36.064zM563.712 126.688l-101.408 0c-3.232 0-6.368 0.48-9.344 1.408-108.256 13.888-200.256 76.704-259.552 177.44C124.576 422.528 108.8 574.112 154.208 682.752c4.896 11.68 16.224 19.392 28.896 19.648l9.632 0.096c60.96 0 117.888-11.52 169.696-34.304 37.44 68.448 80.192 120.384 127.328 154.688 2.496 2.176 5.344 4 8.512 5.344l0 0c9.888 4.288 21.376 3.36 30.432-2.528 1.568-1.024 3.04-2.176 4.384-3.456 47.264-34.688 88.832-85.856 126.464-155.744 52.832 23.872 111.072 35.968 173.632 35.968l9.792-0.096c12.672-0.256 24-7.968 28.896-19.648 45.408-108.672 29.664-260.256-39.232-377.248-59.296-100.672-151.264-163.52-259.488-177.44C570.112 127.2 566.976 126.688 563.712 126.688zM468 190.688l90.016 0c0.672 0.128 1.376 0.224 2.08 0.32 115.712 12.864 182.08 87.072 217.376 147.008 54.048 91.872 70.432 211.936 42.528 300.32-58.24-1.888-111.616-16.16-158.816-42.528-7.712-4.288-16.832-5.184-25.184-2.624-8.384 2.624-15.328 8.608-19.2 16.512-32.448 66.368-67.232 115.2-105.824 148.48-38.624-33.216-74.176-82.4-105.92-146.592-3.872-7.808-10.72-13.696-19.04-16.32-8.32-2.656-17.28-1.76-24.96 2.4C314.848 622.784 262.72 636.448 206.048 638.304c-27.904-88.384-11.52-208.448 42.528-300.288 35.296-59.936 101.632-134.112 217.312-147.008C466.592 190.912 467.296 190.816 468 190.688zM512.768-64c-17.664 0-32 14.304-32 32l0 190.688c0 17.696 14.336 32 32 32s32-14.304 32-32L544.768-32C544.736-49.696 530.432-64 512.768-64z"  horiz-adv-x="1024" />

    
    <glyph glyph-name="pay" unicode="&#58995;" d="M799.488-4.448 159.936-4.448c-52.928 0-96 43.072-96 96L63.936 670.048c0 52.928 43.072 96 96 96l642.496 0c52.928 0 96-43.072 96-96L898.432 576c0-17.664-14.304-32-32-32s-32 14.336-32 32L834.432 670.048c0 17.632-14.336 32-32 32L159.936 702.048c-17.632 0-32-14.368-32-32l0-578.496c0-17.664 14.368-32 32-32l639.552 0c17.664 0 32 14.336 32 32l0 98.944c0 17.696 14.304 32 32 32s32-14.304 32-32l0-98.944C895.488 38.624 852.448-4.448 799.488-4.448zM661.472 381.888m-31.328 0a0.979 0.979 0 1 0 62.656 0 0.979 0.979 0 1 0-62.656 0ZM896 256 576 256c-35.296 0-64 28.704-64 64l0 128c0 35.296 28.704 64 64 64l320 0c35.296 0 64-28.704 64-64l0-128C960 284.704 931.296 256 896 256zM576 448l0-128 320.064 0L896 448 576 448z"  horiz-adv-x="1024" />

    
    <glyph glyph-name="send" unicode="&#58997;" d="M287.008 384 224.992 384c-17.664 0-32 14.336-32 32s14.336 32 32 32l62.016 0c17.664 0 32-14.336 32-32S304.672 384 287.008 384zM882.624 768 141.44 768C98.72 768 64 733.312 64 690.624l0-154.624 0-8.48 0-458.016c0-38.304 31.936-69.472 71.168-69.472l753.696 0c39.264 0 71.168 31.168 71.168 69.472L960.032 527.52 960.032 690.624C960 733.312 925.28 768 882.624 768zM896 690.624l0-131.104-223.488 0L672.512 704l210.112 0C889.984 704 896 697.984 896 690.624zM446.688 704l161.824 0 0-360.448-70.784 28.224c-7.712 3.104-16.352 3.04-24-0.128l-67.04-27.52L446.688 704zM128 690.624C128 697.984 134.016 704 141.44 704l241.248 0 0-144.48L128 559.52 128 690.624zM888.832 64.032 135.168 64.032C130.944 64.032 128 66.912 128 69.504L128 495.52l254.688 0 0-199.168c0-10.656 5.312-20.64 14.176-26.592 5.344-3.552 11.552-5.408 17.824-5.408 4.096 0 8.256 0.768 12.16 2.4l99.232 40.736 102.592-40.864c9.856-3.968 21.024-2.72 29.824 3.232 8.768 5.984 14.016 15.872 14.016 26.496l0 199.168L896 495.52l0-426.016C896 66.912 893.056 64.032 888.832 64.032z"  horiz-adv-x="1024" />

    
    <glyph glyph-name="shop" unicode="&#58998;" d="M864 278.4c-19.2 0-32-12.8-32-32v-195.2c0-9.6-9.6-19.2-19.2-19.2h-601.6c-9.6 0-19.2 9.6-19.2 19.2v195.2c0 19.2-12.8 32-32 32s-32-12.8-32-32v-195.2c0-44.8 38.4-83.2 83.2-83.2h601.6c44.8 0 83.2 38.4 83.2 83.2v195.2c0 19.2-12.8 32-32 32zM956.8 579.2l-105.6 204.8c-6.4 9.6-16 16-28.8 16h-640c-12.8 0-25.6-9.6-28.8-22.4l-83.2-208c-6.4-6.4-3.2-22.4-3.2-25.6v-80c0-80 67.2-147.2 147.2-147.2h41.6c48 0 86.4 16 112 44.8 25.6-28.8 70.4-44.8 124.8-44.8h41.6c54.4 0 99.2 16 124.8 44.8 25.6-25.6 64-41.6 112-41.6h41.6c80 0 147.2 67.2 147.2 147.2v83.2c0 3.2 0 22.4-3.2 28.8zM204.8 736h598.4l67.2-128h-720l54.4 128zM812.8 384h-41.6c-19.2 0-83.2 3.2-83.2 64 0 19.2-12.8 32-32 32s-32-12.8-32-32v-12.8c0-51.2-76.8-54.4-92.8-54.4h-41.6c-16 0-92.8 3.2-92.8 54.4v9.6c0 19.2-12.8 32-32 32s-32-12.8-32-32c0-48-41.6-64-83.2-64h-38.4c-44.8 0-83.2 38.4-83.2 83.2v80h768v-76.8c0-44.8-35.2-83.2-83.2-83.2z"  horiz-adv-x="1024" />

    
    <glyph glyph-name="ticket" unicode="&#58999;" d="M430.144-60.96c-22.72 0-44 8.96-59.872 25.248l-68.064 70.176c-12.288 12.672-12 32.832 0.608 45.184 14.272 13.92 22.24 32.544 22.464 52.48 0.224 19.904-7.328 38.688-21.248 52.928-27.904 28.576-77.056 29.152-105.504 1.312-6.08-5.952-15.328-9.056-22.784-9.12-8.512 0.128-16.64 3.584-22.56 9.728l-67.968 70.048c-15.52 15.808-24.032 36.928-23.808 59.296 0.256 22.4 9.216 43.328 25.248 59.008L530.112 809.856c32.192 31.328 87.168 30.624 118.4-1.312l68.128-70.208c12.288-12.672 12-32.864-0.64-45.184-14.24-13.952-22.24-32.608-22.464-52.544-0.224-19.936 7.328-38.72 21.216-52.992 27.872-28.48 77.056-29.12 105.6-1.248 6.08 5.952 14.688 8.384 22.784 9.12 8.512-0.128 16.64-3.616 22.528-9.728l67.936-70.112c15.488-15.712 24-36.768 23.808-59.104-0.192-22.4-9.12-43.392-25.12-59.072L488.672-37.12C472.864-52.512 452.096-60.96 430.144-60.96zM367.808 58.784l48.352-49.888c7.264-7.392 20.224-7.648 27.808-0.224l443.52 434.464c3.776 3.712 5.888 8.672 5.952 13.952 0.032 5.216-1.952 10.112-5.6 13.824l-48.352 49.92c-21.312-12.832-45.824-19.68-71.296-19.68-37.664 0-72.864 14.816-99.2 41.76-25.888 26.464-39.872 61.408-39.456 98.432 0.32 26.176 7.776 51.136 21.504 72.672l-48.384 49.856c-7.2 7.328-20.256 7.552-27.84 0.192L131.392 329.568c-3.808-3.712-5.92-8.672-5.984-13.92-0.032-5.248 1.952-10.176 5.6-13.952l48.32-49.824c21.312 12.832 45.792 19.68 71.232 19.68 37.664 0 72.928-14.848 99.232-41.824 25.856-26.432 39.904-61.376 39.456-98.368C388.96 105.248 381.504 80.288 367.808 58.784zM354.208 312.768c-8.192 0-16.384 3.136-22.624 9.376-12.512 12.512-12.512 32.736 0 45.248l178.656 178.688c12.512 12.512 32.768 12.512 45.28 0 12.48-12.48 12.48-32.736 0-45.248l-178.656-178.688C370.592 315.904 362.4 312.768 354.208 312.768zM449.824 217.184c-8.192 0-16.384 3.136-22.624 9.376-12.512 12.512-12.512 32.736 0 45.248l178.656 178.688c12.512 12.512 32.736 12.512 45.248 0 12.512-12.48 12.512-32.736 0-45.248l-178.656-178.688C466.176 220.32 457.984 217.184 449.824 217.184z"  horiz-adv-x="1024" />

    
    <glyph glyph-name="back" unicode="&#59001;" d="M671.968-16c-12.288 0-24.576 4.672-33.952 14.048L286.048 350.016c-18.752 18.72-18.752 49.12 0 67.872l351.968 352c18.752 18.752 49.12 18.752 67.872 0 18.752-18.72 18.752-49.12 0-67.872l-318.016-318.048 318.016-318.016c18.752-18.752 18.752-49.12 0-67.872C696.544-11.328 684.256-16 671.968-16z"  horiz-adv-x="1024" />

    
    <glyph glyph-name="cascades" unicode="&#59004;" d="M384 416 192 416c-52.928 0-96 43.072-96 96L96 704c0 52.928 43.072 96 96 96l192 0c52.928 0 96-43.072 96-96l0-192C480 459.072 436.928 416 384 416zM192 736C174.368 736 160 721.632 160 704l0-192c0-17.632 14.368-32 32-32l192 0c17.632 0 32 14.368 32 32L416 704c0 17.632-14.368 32-32 32L192 736zM384-32 192-32c-52.928 0-96 43.072-96 96l0 192c0 52.928 43.072 96 96 96l192 0c52.928 0 96-43.072 96-96l0-192C480 11.072 436.928-32 384-32zM192 288c-17.632 0-32-14.336-32-32l0-192c0-17.664 14.368-32 32-32l192 0c17.632 0 32 14.336 32 32l0 192c0 17.664-14.368 32-32 32L192 288zM832-32l-192 0c-52.928 0-96 43.072-96 96l0 64c0 52.928 43.072 96 96 96l192 0c52.928 0 96-43.072 96-96l0-64C928 11.072 884.928-32 832-32zM640 160c-17.664 0-32-14.336-32-32l0-64c0-17.664 14.336-32 32-32l192 0c17.664 0 32 14.336 32 32l0 64c0 17.664-14.336 32-32 32L640 160zM832 288l-192 0c-52.928 0-96 43.072-96 96L544 704c0 52.928 43.072 96 96 96l192 0c52.928 0 96-43.072 96-96l0-320C928 331.072 884.928 288 832 288zM640 736c-17.664 0-32-14.368-32-32l0-320c0-17.632 14.336-32 32-32l192 0c17.664 0 32 14.368 32 32L864 704c0 17.632-14.336 32-32 32L640 736z"  horiz-adv-x="1024" />

    
    <glyph glyph-name="discover" unicode="&#59006;" d="M544 608c0 52.928-43.072 96-96 96s-96-43.072-96-96 43.072-96 96-96S544 555.072 544 608zM416 608c0 17.632 14.368 32 32 32s32-14.368 32-32-14.368-32-32-32S416 590.368 416 608zM304 448C259.904 448 224 412.096 224 368 224 323.872 259.904 288 304 288s80 35.872 80 80C384 412.096 348.096 448 304 448zM304 352C295.168 352 288 359.168 288 368S295.168 384 304 384s16-7.168 16-16S312.832 352 304 352zM640 160m-64 0a2 2 0 1 0 128 0 2 2 0 1 0-128 0ZM887.84 627.328c39.744 60.672 64.256 113.184 64.224 148.96 0 22.976-9.312 36.928-17.12 44.576-38.08 37.376-110.016 3.2-160.768-25.664-15.328-8.736-20.704-28.288-11.968-43.648 8.736-15.36 28.32-20.704 43.648-11.968 49.408 28.16 73.248 33.088 82.496 33.696-1.504-41.376-95.328-202.432-330.208-433.504-226.368-222.72-398.656-324.672-442.24-325.376 0.96 11.36 8.768 44.448 58.528 118.688 1.312 1.888 2.4 3.968 3.232 6.144l2.304 5.92c0.256 0.64 0.288 1.344 0.512 2.016 8.8 10.24 10.816 25.088 3.392 37.248C147.328 244.384 128 313.408 128 384 128 595.744 300.256 768 512 768c59.296 0 116.096-13.12 168.864-39.04 15.936-7.776 35.04-1.184 42.816 14.656 7.776 15.84 1.248 35.008-14.624 42.816C647.424 816.672 581.12 832 512 832 264.96 832 64 631.04 64 384c0-76.064 19.488-150.496 56.064-216.64-0.192-0.576-0.64-1.056-0.8-1.632C51.168 63.392 35.2 0.32 68.928-32.768c11.008-10.784 25.632-15.584 43.072-15.584 39.328 0 92.864 24.928 150.08 60.896C336.096-37.408 421.952-64 512-64c247.04 0 448 200.96 448 448C960 471.136 934.912 554.752 887.84 627.328zM512 0c-68.288 0-133.728 17.888-191.84 51.552 128.288 92.256 258.432 218.56 282.848 242.624 89.152 87.712 178.56 187.04 244.64 275.968C879.2 513.408 896 449.888 896 384 896 172.256 723.744 0 512 0z"  horiz-adv-x="1024" />

    
    <glyph glyph-name="list" unicode="&#59010;" d="M896 640l-288 0c-17.696 0-32 14.336-32 32s14.304 32 32 32l288 0c17.696 0 32-14.336 32-32S913.696 640 896 640zM896 480l-288 0c-17.696 0-32 14.336-32 32s14.304 32 32 32l288 0c17.696 0 32-14.336 32-32S913.696 480 896 480zM896 224l-288 0c-17.696 0-32 14.304-32 32s14.304 32 32 32l288 0c17.696 0 32-14.304 32-32S913.696 224 896 224zM896 64l-288 0c-17.696 0-32 14.304-32 32s14.304 32 32 32l288 0c17.696 0 32-14.304 32-32S913.696 64 896 64zM384 416 192 416c-52.928 0-96 43.072-96 96L96 704c0 52.928 43.072 96 96 96l192 0c52.928 0 96-43.072 96-96l0-192C480 459.072 436.928 416 384 416zM192 736C174.368 736 160 721.632 160 704l0-192c0-17.632 14.368-32 32-32l192 0c17.632 0 32 14.368 32 32L416 704c0 17.632-14.368 32-32 32L192 736zM384-32 192-32c-52.928 0-96 43.072-96 96l0 192c0 52.928 43.072 96 96 96l192 0c52.928 0 96-43.072 96-96l0-192C480 11.072 436.928-32 384-32zM192 288c-17.632 0-32-14.336-32-32l0-192c0-17.664 14.368-32 32-32l192 0c17.632 0 32 14.336 32 32l0 192c0 17.664-14.368 32-32 32L192 288z"  horiz-adv-x="1024" />

    
    <glyph glyph-name="more" unicode="&#59012;" d="M224 288c-52.928 0-96 43.072-96 96s43.072 96 96 96c52.928 0 96-43.072 96-96S276.928 288 224 288zM512 288c-52.928 0-96 43.072-96 96s43.072 96 96 96c52.928 0 96-43.072 96-96S564.928 288 512 288zM800 288c-52.928 0-96 43.072-96 96s43.072 96 96 96c52.928 0 96-43.072 96-96S852.928 288 800 288z"  horiz-adv-x="1024" />

    
    <glyph glyph-name="scan" unicode="&#59017;" d="M928 352 96 352c-17.664 0-32 14.336-32 32s14.336 32 32 32l832 0c17.696 0 32-14.336 32-32S945.696 352 928 352zM832-32l-192 0c-17.696 0-32 14.304-32 32s14.304 32 32 32l192 0c17.664 0 32 14.336 32 32l0 160c0 17.696 14.304 32 32 32s32-14.304 32-32l0-160C928 11.072 884.928-32 832-32zM352-32 192-32c-52.928 0-96 43.072-96 96l0 160c0 17.696 14.336 32 32 32s32-14.304 32-32l0-160c0-17.664 14.368-32 32-32l160 0c17.664 0 32-14.304 32-32S369.664-32 352-32zM128 512c-17.664 0-32 14.336-32 32L96 704c0 52.928 43.072 96 96 96l160 0c17.664 0 32-14.336 32-32s-14.336-32-32-32L192 736C174.368 736 160 721.632 160 704l0-160C160 526.336 145.664 512 128 512zM896 512c-17.696 0-32 14.336-32 32L864 704c0 17.632-14.336 32-32 32l-192 0c-17.696 0-32 14.336-32 32s14.304 32 32 32l192 0c52.928 0 96-43.072 96-96l0-160C928 526.336 913.696 512 896 512z"  horiz-adv-x="1024" />

    
    <glyph glyph-name="settings" unicode="&#59018;" d="M512 288c-52.928 0-96 43.072-96 96s43.072 96 96 96 96-43.072 96-96S564.928 288 512 288zM512 416c-17.632 0-32-14.368-32-32s14.368-32 32-32 32 14.368 32 32S529.632 416 512 416zM631.04-64c-10.016 0-19.712 4.736-25.856 13.12l-73.408 100.48c-13.664-0.832-25.92-0.864-39.584 0l-73.376-100.48c-7.904-10.816-21.728-15.616-34.656-11.872-34.592 9.888-67.488 23.456-97.76 40.32-11.712 6.528-18.112 19.648-16.032 32.896l19.2 123.264c-9.824 8.704-19.136 18.016-27.84 27.808l-123.264-19.2c-13.056-1.984-26.336 4.352-32.896 16.064-16.896 30.368-30.464 63.296-40.32 97.824-3.68 12.864 1.056 26.72 11.904 34.624l100.448 73.376C177.152 371.04 176.928 377.6 176.928 384s0.224 12.96 0.672 19.776L77.12 477.184c-10.816 7.936-15.584 21.728-11.904 34.656 9.856 34.496 23.424 67.392 40.32 97.792 6.56 11.712 19.712 18.048 32.896 16.064l123.264-19.2c8.736 9.824 18.016 19.104 27.84 27.84l-19.2 123.264C268.288 770.816 274.72 783.936 286.432 790.464c30.4 16.896 63.296 30.464 97.76 40.32 12.928 3.648 26.72-1.056 34.656-11.904l73.376-100.448c13.568 0.896 25.824 0.896 39.584 0l73.408 100.48c7.904 10.848 21.664 15.52 34.656 11.904 34.464-9.856 67.328-23.424 97.76-40.32 11.712-6.528 18.112-19.648 16.064-32.896L734.432 634.24c9.824-8.736 19.104-18.016 27.808-27.776l123.328 19.2c13.152 2.016 26.336-4.384 32.864-16.032 16.896-30.4 30.496-63.296 40.352-97.824 3.648-12.896-1.088-26.688-11.904-34.624l-100.48-73.408c0.448-6.816 0.672-13.376 0.672-19.776s-0.224-12.96-0.672-19.776l100.48-73.376c10.816-7.904 15.552-21.728 11.904-34.624-9.856-34.496-23.424-67.424-40.352-97.824-6.528-11.712-19.488-18.048-32.896-16.064l-123.296 19.2c-8.672-9.76-17.984-19.072-27.808-27.776l19.232-123.296c2.048-13.248-4.352-26.368-16.064-32.896-30.24-16.832-63.136-30.4-97.76-40.32C636.928-63.584 633.984-64 631.04-64zM337.152 23.328c13.984-6.752 28.544-12.704 43.552-17.92l70.528 96.576c6.784 9.28 17.984 14.272 29.472 12.896 20.576-2.336 42.08-2.336 62.624 0 11.84 1.376 22.72-3.616 29.472-12.896l70.528-96.576c15.04 5.184 29.6 11.168 43.552 17.92l-18.432 118.368c-1.76 11.36 2.72 22.848 11.712 30.016 16.384 12.992 31.264 27.872 44.16 44.128 7.168 8.992 18.4 13.504 30.016 11.744l118.368-18.432c6.752 14.016 12.736 28.576 17.92 43.552l-96.576 70.528c-9.28 6.784-14.208 18.016-12.896 29.472 1.152 10.272 1.952 20.704 1.952 31.296s-0.768 21.024-1.952 31.296c-1.312 11.424 3.616 22.688 12.896 29.472l96.576 70.56c-5.152 15.008-11.168 29.568-17.92 43.552l-118.4-18.432c-11.328-1.696-22.816 2.688-29.984 11.744-12.896 16.256-27.776 31.104-44.16 44.128-8.992 7.168-13.472 18.592-11.712 29.984l18.432 118.4c-14.016 6.752-28.576 12.736-43.52 17.92l-70.56-96.576c-6.784-9.28-17.696-14.368-29.472-12.928-20.544 2.368-42.016 2.4-62.56 0-11.52-1.344-22.752 3.616-29.536 12.896l-70.528 96.576c-14.976-5.152-29.536-11.136-43.552-17.92l18.432-118.368c1.76-11.392-2.72-22.848-11.744-30.016-16.32-12.928-31.2-27.808-44.128-44.128-7.168-9.024-18.56-13.472-30.016-11.744l-118.368 18.432c-6.752-14.016-12.736-28.576-17.92-43.552l96.576-70.56c9.312-6.784 14.24-18.08 12.896-29.536C241.696 404.992 240.928 394.592 240.928 384s0.768-20.992 1.952-31.264c1.344-11.456-3.616-22.688-12.896-29.504l-96.576-70.528c5.184-15.008 11.168-29.568 17.92-43.552l118.368 18.432c11.392 1.76 22.848-2.752 30.016-11.744 12.896-16.32 27.744-31.168 44.128-44.128 9.024-7.168 13.504-18.624 11.744-30.016L337.152 23.328z"  horiz-adv-x="1024" />

    
    <glyph glyph-name="questionfill" unicode="&#59024;" d="M512 832C264.96 832 64 631.04 64 384s200.96-448 448-448 448 200.96 448 448S759.04 832 512 832zM512 63.648c-26.496 0-48 21.504-48 48s21.504 48 48 48 48-21.504 48-48S538.496 63.648 512 63.648zM600.576 390.816C572.736 363.008 544 334.272 544 308.448l0-54.112c0-17.664-14.336-32-32-32s-32 14.336-32 32l0 54.112c0 52.352 40 92.352 75.328 127.648C581.216 461.984 608 488.736 608 510.08c0 53.344-43.072 96.736-96 96.736-53.824 0-96-41.536-96-94.56 0-17.664-14.336-32-32-32s-32 14.336-32 32c0 87.424 71.776 158.56 160 158.56s160-72.096 160-160.736C672 462.208 635.68 425.92 600.576 390.816z"  horiz-adv-x="1024" />

    
    <glyph glyph-name="question" unicode="&#59025;" d="M512 111.648m-48 0a1.5 1.5 0 1 0 96 0 1.5 1.5 0 1 0-96 0ZM512-64C264.96-64 64 136.96 64 384S264.96 832 512 832s448-200.96 448-448S759.04-64 512-64zM512 767.712C300.416 767.712 128.288 595.584 128.288 384c0-211.552 172.128-383.712 383.712-383.712 211.552 0 383.712 172.16 383.712 383.712C895.712 595.584 723.552 767.712 512 767.712zM512 222.304c-17.664 0-32 14.336-32 32l0 54.112c0 52.352 40 92.352 75.328 127.648C581.216 461.984 608 488.736 608 510.08c0 53.344-43.072 96.736-96 96.736-53.824 0-96-41.536-96-94.56 0-17.664-14.336-32-32-32s-32 14.336-32 32c0 87.424 71.776 158.56 160 158.56s160-72.096 160-160.736c0-47.904-36.32-84.192-71.424-119.296C572.736 363.008 544 334.272 544 308.448l0-54.112C544 236.672 529.664 222.304 512 222.304z"  horiz-adv-x="1024" />

    
    <glyph glyph-name="shopfill" unicode="&#59031;" d="M952.832 543.232c-0.064 0.48-0.16 0.928-0.256 1.312-0.384 1.856-0.896 3.648-1.632 5.376L875.936 736.64c-12.96 38.592-48.832 62.56-93.952 62.56L255.488 799.2c-44.224 0-78.592-23.52-91.04-60.704l-80.64-190.528c-0.384-1.12-0.8-2.784-1.152-4.48-5.856-17.984-8.8-36.448-8.8-54.976 0.064-65.184 35.84-124.704 93.28-155.264 23.648-12.672 51.52-19.072 82.816-19.072 0.032 0 0.064 0 0.096 0 52.512 0.128 101.152 23.2 134.304 62.688 32.992-39.136 81.248-62.08 133.664-62.4 52 0.384 100.096 23.424 132.96 62.56 33.152-39.488 81.856-62.496 134.624-62.496 31.936 0.192 60.288 6.88 84.16 20 56.576 30.88 91.68 90.176 91.648 154.656C961.44 507.744 958.4 526.304 952.832 543.232zM766.432 512.032 254.4 512.032c-17.664 0-32 14.336-32 32s14.336 32 32 32l512.032 0c17.696 0 32-14.336 32-32S784.128 512.032 766.432 512.032zM895.072 256c0 17.696-14.304 32-32 32-3.296 0-6.272-0.928-9.248-1.888l0 0c-23.712-9.376-54.048-14.432-76.928-13.184-50.432 2.688-88.864 12.736-125.888 44.256-36.512-31.136-83.104-48.864-132.704-49.312-50.304 0.32-97.152 12.928-133.856 44.128-36.928-31.488-84.064-46.816-134.272-46.816L249.984 265.184c-30.656 0-47.936 5.824-75.84 16.128-0.768 0.384-1.568 0.576-2.368 0.864-1.344 0.512-2.368 0.864-3.744 1.376 0 0-4.608 0.8-7.136 0.8 0 0-0.032 0-0.064 0-17.664 0-31.968-14.368-31.936-32.064l0.224-171.488c0-45.12 36.768-81.824 81.984-81.824l602.176 0.384c45.152 0.128 81.888 36.928 81.888 82.048L895.072 256z"  horiz-adv-x="1024" />

    
    <glyph glyph-name="form" unicode="&#59033;" d="M800-32 224-32c-52.928 0-96 43.072-96 96L128 704c0 52.928 43.072 96 96 96l576 0c52.928 0 96-43.072 96-96l0-640C896 11.072 852.928-32 800-32zM224 736C206.368 736 192 721.632 192 704l0-640c0-17.664 14.368-32 32-32l576 0c17.664 0 32 14.336 32 32L832 704c0 17.632-14.336 32-32 32L224 736zM640.992 351.136 287.776 351.136c-17.664 0-32 14.336-32 32s14.336 32 32 32l353.216 0c17.696 0 32-14.336 32-32S658.688 351.136 640.992 351.136zM734.88 160.48 287.648 160.48c-17.664 0-32 14.304-32 32s14.336 32 32 32l447.232 0c17.696 0 32-14.304 32-32S752.576 160.48 734.88 160.48zM303.712 590.656m-48 0a1.5 1.5 0 1 0 96 0 1.5 1.5 0 1 0-96 0ZM511.104 590.656m-48 0a1.5 1.5 0 1 0 96 0 1.5 1.5 0 1 0-96 0ZM719.232 590.656m-48 0a1.5 1.5 0 1 0 96 0 1.5 1.5 0 1 0-96 0Z"  horiz-adv-x="1024" />

    
    <glyph glyph-name="pic" unicode="&#59035;" d="M320 512m-64 0a2 2 0 1 0 128 0 2 2 0 1 0-128 0ZM842.688 0 181.312 0C116.64 0 64 52.64 64 117.312L64 650.688C64 715.36 116.64 768 181.312 768l661.376 0C907.36 768 960 715.36 960 650.688l0-533.376C960 52.64 907.36 0 842.688 0zM181.312 704C151.936 704 128 680.064 128 650.688l0-533.376C128 87.904 151.936 64 181.312 64l661.376 0C872.096 64 896 87.904 896 117.312L896 650.688C896 680.064 872.096 704 842.688 704L181.312 704zM224 127.008c-3.136 0-6.336 0.48-9.504 1.472-16.864 5.248-26.304 23.136-21.056 40 2.368 7.616 60.16 186.848 183.168 183.648 35.008-0.864 64.32-9.696 92.672-18.24 36.416-10.944 67.904-20.384 109.632-13.728 20.448 3.296 28.896 23.84 43.328 69.984 19.04 60.832 47.808 152.736 174.656 152.736 17.696 0 32-14.336 32-32s-14.304-32-32-32c-75.968 0-92.672-40.992-113.6-107.872-14.496-46.4-32.608-104.16-94.272-114.016-56.288-8.96-99.776 4.128-138.208 15.616-25.408 7.648-49.44 14.88-75.872 15.52-0.48 0.032-0.96 0.032-1.44 0.032-62.016 0-106.88-99.872-119.008-138.656C250.272 135.808 237.632 127.008 224 127.008z"  horiz-adv-x="1024" />

    
    <glyph glyph-name="filter" unicode="&#59036;" d="M608.256-64c-17.696 0-32 14.304-32 32L576.256 448c0 7.936 2.944 15.584 8.256 21.44l208.8 234.496L230.432 703.936l209.216-234.656c5.216-5.856 8.096-13.44 8.096-21.312l0-288.768 50.848-41.152c13.76-11.136 15.872-31.264 4.736-44.992s-31.264-15.84-44.992-4.736l-62.72 50.752c-7.52 6.048-11.872 15.232-11.872 24.864l0 291.872L135.136 714.656C126.752 724.064 124.672 737.536 129.824 749.056 134.976 760.544 146.432 767.968 159.04 767.968l706.336 0c12.672 0 24.128-7.456 29.248-19.008s2.976-25.056-5.504-34.432l-248.864-278.816L640.256-32C640.256-49.696 625.952-64 608.256-64z"  horiz-adv-x="1024" />

    
    <glyph glyph-name="footprint" unicode="&#59037;" d="M885.76 214.464c-13.76 11.168-33.92 8.896-44.96-4.832-11.104-13.76-8.928-33.92 4.832-44.96 22.4-18.08 52.48-71.776 52.48-101.984 0-54.016-43.904-97.952-97.92-97.952-31.776 0-61.728 15.488-80.096 41.504-2.208 3.136-61.536 88.672-96.192 125.696-61.088 65.216-163.52 61.568-163.904 61.632-129.76 26.752-218.656 132.032-202.4 239.744 8.064 53.728 40.96 100.736 92.64 132.448 53.44 32.736 120.192 45.184 188 34.976 67.712-10.208 127.84-41.728 169.28-88.768 40.064-45.504 57.664-100.128 49.536-153.92-3.072-20.576-9.856-40.352-20.224-58.816-8.672-15.392-3.2-34.912 12.256-43.552 15.328-8.608 34.912-3.2 43.552 12.256 14.176 25.248 23.488 52.416 27.712 80.672 10.976 72.704-12.064 145.76-64.8 205.696-51.392 58.336-125.184 97.344-207.776 109.76C465.184 676.448 383.104 660.96 316.8 620.32c-68.096-41.728-111.584-104.768-122.496-177.472-21.344-141.312 89.696-278.336 252.768-311.968 2.176-0.448 89.216 0.96 130.112-42.688 35.808-38.24 90.528-121.344 94.56-123.776 30.528-39.872 77.984-63.648 128.416-63.648 89.28 0 161.92 72.672 161.92 161.952C962.08 114.368 921.792 185.472 885.76 214.464zM128.416 575.136m-64 0a2 2 0 1 0 128 0 2 2 0 1 0-128 0ZM272.864 667.744c-10.976 0-21.984 3.712-30.944 11.328C221.92 696.096 219.136 725.888 235.936 746.08c3.968 4.736 98.688 115.68 277.184 79.968 25.984-5.184 42.848-30.464 37.664-56.48s-30.496-42.976-56.48-37.664c-120.8 24.192-182.304-44.672-184.864-47.584C299.904 673.376 286.4 667.744 272.864 667.744z"  horiz-adv-x="1024" />

    
    <glyph glyph-name="top" unicode="&#59038;" d="M825.568 340.672l-287.392 289.28C531.808 636.352 523.488 639.424 515.2 639.36 514.08 639.456 513.12 640 512 640c-4.672 0-9.024-1.088-13.024-2.88-4.032-1.536-7.872-3.872-11.136-7.136l-259.328-258.88c-12.512-12.48-12.544-32.736-0.032-45.248 6.24-6.272 14.432-9.408 22.656-9.408 8.192 0 16.352 3.136 22.624 9.344L480 531.712 480-32c0-17.696 14.336-32 32-32s32 14.304 32 32L544 533.28l236.192-237.728c6.24-6.272 14.496-9.44 22.688-9.44s16.32 3.104 22.56 9.312C838.016 307.872 838.048 328.16 825.568 340.672zM864 704 160 704C142.336 704 128 718.336 128 736s14.336 32 32 32l704 0c17.696 0 32-14.336 32-32S881.696 704 864 704z"  horiz-adv-x="1024" />

    
    <glyph glyph-name="pulldown" unicode="&#59039;" d="M512-64C264.96-64 64 136.96 64 384S264.96 832 512 832s448-200.96 448-448S759.04-64 512-64zM512 768C300.256 768 128 595.744 128 384c0-211.744 172.256-384 384-384 211.744 0 384 172.256 384 384C896 595.744 723.744 768 512 768zM694.56 373.856c-12.544 12.608-33.376 12.64-45.952 0.064L544 270.016 544 576.672c0 17.76-14.208 32.16-32 32.16-17.76 0-32-14.4-32-32.16l0-308.32-105.216 106.688c-12.48 12.608-32.704 12.736-45.312 0.256C316.832 362.784 316.8 342.4 329.28 329.792l159.36-161.056c6.272-6.336 14.592-9.568 22.88-9.568 8.16 0 16.384 3.168 22.624 9.312 0.032 0.064 0.032 0.064 0.064 0.128 0.032 0 0.064 0 0.096 0.064l160.192 159.68C707.072 340.896 707.104 361.28 694.56 373.856z"  horiz-adv-x="1024" />

    
    <glyph glyph-name="pullup" unicode="&#59040;" d="M512-64C264.96-64 64 136.96 64 384S264.96 832 512 832s448-200.96 448-448S759.04-64 512-64zM512 768C300.256 768 128 595.744 128 384c0-211.744 172.256-384 384-384 211.744 0 384 172.256 384 384C896 595.744 723.744 768 512 768zM694.464 437.632l-158.496 160.256c-9.344 9.472-23.168 11.84-34.784 7.136-0.736-0.288-1.312-0.992-2.016-1.344-2.976-1.472-5.952-3.072-8.448-5.536-0.032-0.032-0.032-0.064-0.064-0.096s-0.064-0.032-0.096-0.064l-159.36-158.912c-12.512-12.48-12.544-32.736-0.064-45.248 6.24-6.272 14.464-9.408 22.656-9.408 8.16 0 16.352 3.104 22.592 9.344L480 497.056 480 192c0-17.696 14.336-32 32-32s32 14.304 32 32l0 306.752 104.96-106.112c6.24-6.336 14.496-9.504 22.752-9.504 8.128 0 16.256 3.072 22.496 9.248C706.784 404.8 706.912 425.056 694.464 437.632z"  horiz-adv-x="1024" />

    
    <glyph glyph-name="right" unicode="&#59043;" d="M761.056 363.872c0.512 0.992 1.344 1.824 1.792 2.848 8.8 18.304 5.92 40.704-9.664 55.424L399.936 756.256c-19.264 18.208-49.632 17.344-67.872-1.888-18.208-19.264-17.376-49.632 1.888-67.872l316.96-299.84-315.712-304.288c-19.072-18.4-19.648-48.768-1.248-67.872 9.408-9.792 21.984-14.688 34.56-14.688 12 0 24 4.48 33.312 13.44l350.048 337.376c0.672 0.672 0.928 1.6 1.6 2.304 0.512 0.48 1.056 0.832 1.568 1.344C757.76 357.12 759.2 360.608 761.056 363.872z"  horiz-adv-x="1024" />

    
    <glyph glyph-name="refresh" unicode="&#59044;" d="M939.456 639.776c-16.672 5.984-34.976-2.72-40.896-19.36l-24.768-69.344c-28.992 65.312-74.784 122.72-133.088 165.92C555.328 854.272 291.296 816.768 152.32 633.344c-67.264-88.768-95.616-198.176-79.84-308.032 15.84-110.304 74.208-207.776 164.352-274.496 75.424-55.808 163.808-82.752 251.456-82.752 128.032 0 254.56 57.44 336.992 166.272 36.48 48.128 61.472 102.08 74.208 160.416 3.776 17.248-7.136 34.304-24.416 38.08-17.216 3.712-34.304-7.104-38.08-24.416-10.784-49.184-31.872-94.752-62.72-135.456-117.888-155.52-341.92-187.232-499.392-70.72-76.288 56.48-125.664 138.912-139.072 232.16-13.344 92.8 10.656 185.248 67.488 260.288 117.856 155.584 341.792 187.424 499.328 70.848 57.024-42.24 99.84-100.608 122.976-166.624l-109.984 42.944c-16.416 6.368-35.008-1.696-41.44-18.176-6.432-16.48 1.728-35.008 18.176-41.44l161.856-63.2c3.808-1.472 7.744-2.208 11.616-2.208 0.544 0 1.024 0.192 1.568 0.224 1.216-0.128 2.432-0.64 3.648-0.64 13.12 0 25.472 8.16 30.112 21.248l57.632 161.184C964.768 615.52 956.096 633.856 939.456 639.776z"  horiz-adv-x="1024" />

    
    <glyph glyph-name="moreandroid" unicode="&#59045;" d="M417.696 672c0 52.928 43.072 96 96 96s96-43.072 96-96-43.072-96-96-96S417.696 619.072 417.696 672zM417.696 384c0 52.928 43.072 96 96 96s96-43.072 96-96-43.072-96-96-96S417.696 331.072 417.696 384zM417.696 96c0 52.928 43.072 96 96 96s96-43.072 96-96-43.072-96-96-96S417.696 43.072 417.696 96z"  horiz-adv-x="1024" />

    
    <glyph glyph-name="deletefill" unicode="&#59046;" d="M928 672l-160 0L768 736c0 52.928-42.72 96-95.264 96L352 832C299.072 832 256 788.928 256 736l0-64L96 672C78.304 672 64 657.696 64 640s14.304-32 32-32l832 0c17.696 0 32 14.304 32 32S945.696 672 928 672zM800 544 224 544c-0.032 0 0.096 0 0.064 0-8.48 0-16.64-3.136-22.656-9.088C195.392 528.896 192 520.992 192 512.48L192 32c0-52.928 43.136-96 96.064-96l448.064 0C789.056-64 832-20.928 832 32L832 512C832 529.632 817.664 543.936 800 544zM448 96c0-17.696-14.304-32-32-32s-32 14.304-32 32L384 448c0 17.696 14.304 32 32 32s32-14.304 32-32L448 96zM640 96c0-17.696-14.304-32-32-32s-32 14.304-32 32L576 448c0 17.696 14.304 32 32 32s32-14.304 32-32L640 96z"  horiz-adv-x="1024" />

    
    <glyph glyph-name="refund" unicode="&#59052;" d="M985.984 306.016c-10.304 14.304-30.272 17.568-44.672 7.296l-56.928-40.992c9.856 35.872 15.04 73.024 15.04 110.72 0 229.952-187.104 417.024-417.056 417.024-229.984 0-417.056-187.072-417.056-417.024 0-229.952 187.104-417.024 417.056-417.024 72.736 0 144 19.104 206.688 55.008 3.36 0.672 6.688 1.76 9.824 3.616 17.952 10.688 35.136 22.784 51.168 35.936 13.632 11.264 15.584 31.392 4.384 45.056-11.264 13.632-31.36 15.616-45.056 4.384-12.544-10.304-26.08-19.616-40.064-28.16-2.144-0.704-4.352-1.024-6.368-2.24-54.368-32.448-116.8-49.6-180.544-49.6-194.656 0-353.056 158.368-353.056 353.024S287.68 736.064 482.368 736.064 835.392 577.696 835.392 383.04c0-44.16-8.192-87.552-24-128.192l-45.28 108.704c-6.816 16.352-25.568 23.968-41.856 17.248-16.32-6.784-24.032-25.536-17.216-41.856l72-172.864c0.736-1.824 1.888-3.328 2.944-4.96 0.288-0.448 0.32-0.96 0.64-1.408 0.096-0.16 0.288-0.192 0.384-0.352 2.752-3.648 6.24-6.496 10.208-8.704 0.704-0.384 1.344-0.768 2.08-1.088 3.328-1.536 6.848-2.72 10.624-3.04 0.64-0.064 1.216 0.096 1.856 0.064 0.32 0 0.576-0.192 0.832-0.192 0.672 0 1.312 0.256 1.984 0.32 2.4 0.096 4.736 0.448 7.008 1.056 0.512 0.16 0.96 0.352 1.44 0.512 2.592 0.896 5.024 2.112 7.296 3.648 0.32 0.224 0.672 0.288 0.96 0.512l151.392 108.96C993.024 271.68 996.288 291.68 985.984 306.016zM606.752 521.504c12.672 12.288 13.024 32.544 0.736 45.248-12.288 12.672-32.512 13.056-45.248 0.736l-79.744-77.12-79.744 77.12c-12.704 12.288-32.992 11.968-45.248-0.736-12.288-12.704-11.968-32.96 0.736-45.248L448 434.72 448 416l-64 0c-17.664 0-32-14.336-32-32s14.336-32 32-32l64 0 0-32-64 0c-17.664 0-32-14.304-32-32s14.336-32 32-32l64 0 0-67.264c0-17.696 14.336-32 32-32s32 14.304 32 32L512 256l64 0c17.696 0 32 14.304 32 32s-14.304 32-32 32l-64 0 0 32 64 0c17.696 0 32 14.336 32 32s-14.304 32-32 32l-64 0 0 13.888L606.752 521.504z"  horiz-adv-x="1024" />

    
    <glyph glyph-name="cart" unicode="&#59055;" d="M940.8 611.2c-16 19.2-38.4 28.8-64 28.8h-524.8c-19.2 0-32-12.8-32-32s12.8-32 32-32h524.8c6.4 0 12.8-3.2 16-6.4s6.4-9.6 3.2-19.2l-48-336c0-9.6-12.8-19.2-25.6-19.2h-486.4c-12.8 0-25.6 16-25.6 28.8l-54.4 371.2-28.8 156.8c-6.4 44.8-44.8 80-92.8 80h-38.4c-19.2 0-32-16-32-32s12.8-32 32-32h38.4c12.8 0 25.6-9.6 28.8-25.6l28.8-156.8 51.2-371.2c6.4-48 44.8-86.4 89.6-86.4h486.4c44.8 0 83.2 32 89.6 73.6l51.2 339.2c3.2 25.6-3.2 51.2-19.2 70.4zM259.2 0c0-35.346 28.654-64 64-64s64 28.654 64 64c0 35.346-28.654 64-64 64-35.346 0-64-28.654-64-64zM768 0c0-35.346 28.654-64 64-64s64 28.654 64 64c0 35.346-28.654 64-64 64-35.346 0-64-28.654-64-64z"  horiz-adv-x="1024" />

    
    <glyph glyph-name="qrcode" unicode="&#59056;" d="M419.2 736v-256h-256v256h256M419.2 800h-256c-35.2 0-64-28.8-64-64v-256c0-35.2 28.8-64 64-64h256c35.2 0 64 28.8 64 64v256c0 35.2-28.8 64-64 64zM899.2 736v-256h-256v256h256M899.2 800h-256c-35.2 0-64-28.8-64-64v-256c0-35.2 28.8-64 64-64h256c35.2 0 64 28.8 64 64v256c0 35.2-28.8 64-64 64zM419.2 288v-256h-256v256h256M419.2 352h-256c-35.2 0-64-28.8-64-64v-256c0-35.2 28.8-64 64-64h256c35.2 0 64 28.8 64 64v256c0 35.2-28.8 64-64 64zM611.2 0c-19.2 0-32 12.8-32 32v256c0 19.2 12.8 32 32 32s32-12.8 32-32v-256c0-16-16-32-32-32zM768 0c-19.2 0-32 12.8-32 32v256c0 19.2 12.8 32 32 32s32-12.8 32-32v-256c0-16-16-32-32-32zM931.2 0c-19.2 0-32 12.8-32 32v256c0 19.2 12.8 32 32 32s32-12.8 32-32v-256c0-16-16-32-32-32z"  horiz-adv-x="1024" />

    
    <glyph glyph-name="remind" unicode="&#59058;" d="M896 668.896c-8.192 0-16.384 3.136-22.624 9.376l-96 96c-12.512 12.512-12.512 32.736 0 45.248s32.736 12.512 45.248 0l96-96c12.512-12.512 12.512-32.736 0-45.248C912.384 672.032 904.192 668.896 896 668.896zM129.216 670.88c-8.192 0-16.384 3.136-22.624 9.376-12.512 12.512-12.512 32.736 0 45.248l96 96c12.512 12.512 32.736 12.512 45.248 0 12.512-12.512 12.512-32.736 0-45.248l-96-96C145.6 673.984 137.408 670.88 129.216 670.88zM726.624 550.272c12.512 12.512 12.512 32.736 0 45.248s-32.736 12.512-45.248 0l-128-128c-0.096-0.064-0.096-0.192-0.192-0.288-12.576 6.016-26.4 9.664-41.184 9.664s-28.672-3.648-41.184-9.664c-0.064 0.096-0.096 0.192-0.192 0.288l-96 96c-12.512 12.512-32.736 12.512-45.248 0s-12.512-32.736 0-45.248l96-96c0.064-0.064 0.192-0.096 0.288-0.192C419.648 409.568 416 395.712 416 380.896c0-52.928 43.072-96 96-96 52.928 0 96 43.104 96 96 0 14.784-3.648 28.672-9.664 41.184 0.096 0.064 0.192 0.096 0.288 0.192L726.624 550.272zM512 348.864c-17.632 0-32 14.368-32 32s14.368 32 32 32 32-14.368 32-32S529.632 348.864 512 348.864zM506.848 380.896M809.888 91.136C882.816 166.048 928 268.288 928 380.896c0 229.376-186.624 416-416 416s-416-186.624-416-416c0-113.376 45.696-216.192 119.52-291.328l-48.896-73.984c-9.728-14.752-5.696-34.624 9.056-44.32 5.44-3.584 11.552-5.312 17.6-5.312 10.4 0 20.576 4.992 26.72 14.336l44.352 67.168c69.28-51.584 154.816-82.56 247.648-82.56 93.568 0 179.744 31.424 249.312 83.808l45.376-66.56c6.176-9.056 16.256-13.984 26.464-13.984 6.208 0 12.48 1.856 17.984 5.6 14.624 9.984 18.368 29.888 8.448 44.448L809.888 91.136zM160 380.896c0 194.08 157.92 352 352 352 194.048 0 352-157.92 352-352s-157.952-352-352-352C317.92 28.864 160 186.816 160 380.896z"  horiz-adv-x="1024" />

    
    <glyph glyph-name="delete" unicode="&#59060;" d="M608 128c-17.696 0-32 14.304-32 32L576 512c0 17.696 14.304 32 32 32s32-14.304 32-32l0-352C640 142.304 625.696 128 608 128zM416 128c-17.696 0-32 14.304-32 32L384 512c0 17.696 14.304 32 32 32s32-14.304 32-32l0-352C448 142.304 433.696 128 416 128zM928 672l-160 0L768 736c0 52.928-42.72 96-95.264 96L352 832C299.072 832 256 788.928 256 736l0-64L96 672C78.304 672 64 657.696 64 640s14.304-32 32-32l832 0c17.696 0 32 14.304 32 32S945.696 672 928 672zM320 736c0 17.632 14.368 32 32 32l320.736 0C690.272 768 704 753.952 704 736l0-64L320 672 320 736zM736.128-64 288.064-64c-52.928 0-96 43.072-96 96L192.064 512.48c0 17.664 14.336 32 32 32s32-14.336 32-32L256.064 32c0-17.664 14.368-32 32-32l448.064 0c17.664 0 32 14.336 32 32L768.128 511.168c0 17.664 14.304 32 32 32s32-14.336 32-32L832.128 32C832.128-20.928 789.056-64 736.128-64z"  horiz-adv-x="1024" />

    
    <glyph glyph-name="profile" unicode="&#59063;" d="M768 512c0 160-128 288-288 288s-288-128-288-288c0-108.8 57.6-201.6 147.2-249.6-121.6-48-214.4-153.6-240-288-3.2-16 6.4-35.2 25.6-38.4h3.2c16 0 28.8 9.6 32 25.6 28.8 150.4 160 259.2 313.6 262.4h6.4c160 0 288 128 288 288zM256 512c0 124.8 99.2 224 224 224s224-99.2 224-224c0-121.6-99.2-220.8-220.8-224h-9.6c-121.6 3.2-217.6 102.4-217.6 224zM896 192h-256c-19.2 0-32-12.8-32-32v-192c0-19.2 12.8-32 32-32h256c19.2 0 32 12.8 32 32v192c0 16-12.8 32-32 32zM864 0h-192v128h192v-128zM736 32h32c19.2 0 32 12.8 32 32s-12.8 32-32 32h-32c-19.2 0-32-12.8-32-32s16-32 32-32z"  horiz-adv-x="1024" />

    
    <glyph glyph-name="home" unicode="&#59064;" d="M96 416c-9.6 0-19.2 3.2-25.6 12.8-12.8 12.8-9.6 35.2 3.2 44.8l377.6 310.4c35.2 25.6 86.4 25.6 118.4 0l377.6-307.2c12.8-9.6 16-32 3.2-44.8s-32-16-44.8-3.2l-374.4 300.8c-9.6 6.4-28.8 6.4-38.4 0l-377.6-307.2c-6.4-6.4-12.8-6.4-19.2-6.4zM816-32h-208c-19.2 0-32 12.8-32 32v150.4c0 22.4-38.4 44.8-67.2 44.8s-64-19.2-64-44.8v-150.4c0-19.2-12.8-32-32-32h-201.6c-48 0-83.2 35.2-83.2 80v304c0 19.2 12.8 32 32 32s32-12.8 32-32v-304c0-9.6 6.4-16 19.2-16h172.8v118.4c0 64 67.2 108.8 128 108.8s131.2-44.8 131.2-108.8v-118.4h176c9.6 0 16 0 16 19.2v300.8c0 19.2 12.8 32 32 32s32-12.8 32-32v-304c-3.2-48-35.2-80-83.2-80z"  horiz-adv-x="1024" />

    
    <glyph glyph-name="cartfill" unicode="&#59065;" d="M259.2 0c0-35.346 28.654-64 64-64s64 28.654 64 64c0 35.346-28.654 64-64 64-35.346 0-64-28.654-64-64zM768 0c0-35.346 28.654-64 64-64s64 28.654 64 64c0 35.346-28.654 64-64 64-35.346 0-64-28.654-64-64zM940.8 611.2c-16 19.2-38.4 28.8-64 28.8h-627.2l-22.4 112c-6.4 44.8-44.8 80-92.8 80h-38.4c-19.2 0-32-16-32-32s12.8-32 32-32h38.4c12.8 0 25.6-9.6 28.8-25.6l28.8-156.8 51.2-371.2c6.4-48 44.8-86.4 89.6-86.4h486.4c44.8 0 83.2 32 89.6 73.6l51.2 339.2c3.2 25.6-3.2 51.2-19.2 70.4z"  horiz-adv-x="1024" />

    
    <glyph glyph-name="discoverfill" unicode="&#59066;" d="M928.768 808.768c-0.032 7.456-1.216 13.696-2.848 19.328-31.328 8.288-72.128-1.248-106.624-17.984-7.072-3.424-23.84-13.632-48.672-28.736-10.272-6.272-19.328-11.776-23.328-14.048-0.384-0.224-0.608-0.64-0.96-0.864C678.56 807.744 599.296 832 514.272 832c-247.04 0-448-200.96-448-448 0-82.816 22.976-160.192 62.304-226.784-46.464-71.616-69.504-123.328-63.488-158.368 1.248-7.168 13.6-8.32 20.384-8.32 138.432 0 454.848 303.776 494.208 342.496C753.504 504 928.864 713.024 928.768 808.768zM306.272 285.312c-44.096 0-80 35.872-80 80 0 44.096 35.904 80 80 80s80-35.904 80-80C386.272 321.184 350.368 285.312 306.272 285.312zM447.072 509.312c-52.928 0-96 43.072-96 96s43.072 96 96 96 96-43.072 96-96S500 509.312 447.072 509.312zM895.904 617.44c-67.104-99.648-172.608-219.296-277.856-322.784-28.64-28.192-202.272-196.448-348.096-286.112 0.128 0.096 0.224 0.16 0.352 0.224C340.576-37.088 424.288-64 514.272-64c247.04 0 448 200.96 448 448C962.24 469.6 937.728 549.344 895.904 617.44zM640.032 96c-35.296 0-64 28.704-64 64s28.704 64 64 64 64-28.704 64-64S675.328 96 640.032 96z"  horiz-adv-x="1024" />

    
    <glyph glyph-name="homefill" unicode="&#59067;" d="M947.2 473.6l-374.4 307.2c-32 25.6-86.4 25.6-118.4 0l-377.6-310.4c-12.8-6.4-16-22.4-9.6-35.2 3.2-12.8 16-19.2 28.8-19.2h32v-364.8c0-48 35.2-83.2 83.2-83.2h204.8c19.2 0 32 12.8 32 32v147.2c0 22.4 35.2 44.8 64 44.8s67.2-22.4 67.2-44.8v-147.2c0-19.2 12.8-32 32-32h208c48 0 80 32 80 83.2v364.8h32c12.8 0 25.6 9.6 28.8 22.4 3.2 12.8 0 25.6-12.8 35.2z"  horiz-adv-x="1024" />

    
    <glyph glyph-name="message" unicode="&#59068;" d="M640 480l-256 0c-17.664 0-32 14.336-32 32s14.336 32 32 32l256 0c17.696 0 32-14.336 32-32S657.696 480 640 480zM579.264 352 384 352c-17.664 0-32 14.336-32 32s14.336 32 32 32l195.264 0c17.696 0 32-14.336 32-32S596.928 352 579.264 352zM962.24 448c0 211.744-200.96 384-448 384s-448-172.256-448-384c0-116.512 63.04-226.048 172.928-300.672 14.624-9.984 34.528-6.144 44.448 8.512 9.92 14.624 6.112 34.528-8.512 44.448C183.04 262.784 130.24 353.056 130.24 448c0 176.448 172.256 320 384 320 211.744 0 384-143.552 384-320 0-176.448-172.256-320-384-320-1.984 0-3.68-0.768-5.568-1.12-15.136 2.72-30.464-5.216-35.776-20.192-6.144-17.376-46.368-46.656-94.144-73.792 17.44 58.208 9.088 70.688 3.488 78.976-6.72 9.984-17.92 15.936-29.92 15.936-17.664 0-32-14.304-32-32 0-5.824 1.536-11.264 4.256-15.968-3.232-18.208-17.216-60.832-33.056-99.84-4.928-12.096-1.984-25.984 7.392-35.072 6.08-5.888 14.112-8.992 22.272-8.992 4.384 0 8.8 0.896 12.992 2.752 36.48 16.256 147.648 69.12 187.616 125.632C765.344 67.84 962.24 238.432 962.24 448z"  horiz-adv-x="1024" />

    
    <glyph glyph-name="addressbook" unicode="&#59069;" d="M160 288c-17.664 0-32 14.304-32 32l0 160c0 17.664 14.336 32 32 32s32-14.336 32-32l0-160C192 302.304 177.664 288 160 288zM864-32 224-32c-52.928 0-96 42.752-96 95.328L128 128c0 17.696 14.336 32 32 32s32-14.304 32-32l0-64.672C192 46.016 206.368 32 224 32l640 0c17.664 0 32 14.336 32 32L896 704c0 17.632-14.336 32-32 32L224 736C205.44 736 192 725.856 192 718.976L192 672c0-17.664-14.336-32-32-32S128 654.336 128 672L128 718.976C128 763.648 171.072 800 224 800l640 0c52.928 0 96-43.072 96-96l0-640C960 11.072 916.928-32 864-32zM192 544 96 544c-17.664 0-32 14.336-32 32s14.336 32 32 32l96 0c17.664 0 32-14.336 32-32S209.664 544 192 544zM192 192 96 192c-17.664 0-32 14.304-32 32s14.336 32 32 32l96 0c17.664 0 32-14.304 32-32S209.664 192 192 192zM319.456 95.008c-14.56 0-27.712 9.984-31.136 24.736-4 17.216 6.688 34.4 23.936 38.4 4.544 1.056 97.792 22.656 167.744 30.56l0 20.032c-67.136 57.6-96 139.52-96 269.92 0 127.84 64.608 192.672 192 192.672 158.688 0 192-104.416 192-192 0-139.008-66.24-223.2-127.2-271.2l0.224-19.84c69.28-8.544 161.504-29.088 165.984-30.08 17.248-3.84 28.096-20.96 24.224-38.208-3.808-17.216-20.704-28.224-38.208-24.224-1.184 0.256-121.856 27.168-185.92 31.648-16.64 1.152-29.568 14.912-29.76 31.552l-0.672 64.672c-0.128 10.464 4.864 20.32 13.408 26.368C642.016 287.2 704 357.152 704 479.328c0 90.912-37.088 128-128 128-92.096 0-128-36.064-128-128.672 0-117.632 24.16-184.032 83.392-229.248C539.328 243.36 544 233.984 544 224l0-64.672c0-17.088-13.408-31.168-30.464-31.968-63.584-3.04-185.568-31.264-186.784-31.52C324.32 95.264 321.888 95.008 319.456 95.008z"  horiz-adv-x="1024" />

    
    <glyph glyph-name="link" unicode="&#59071;" d="M545.856 256c-0.416 0-0.8 0-1.216 0-17.216 0-33.12 13.12-44.832 25.952l-36.992 43.392c-11.904 13.056-10.944 34.688 2.112 46.56 13.088 11.936 33.312 11.648 45.216-1.408l36.992-40.256 173.472 179.136-49.888 54.144-72-74.144c-12.48-12.544-32.704-12.672-45.248-0.192-12.576 12.416-12.672 32.704-0.256 45.248l73.44 74.176c12.128 12.256 28.992 18.336 45.408 18.752 17.184-0.16 33.184-7.168 45.056-19.68l49.888-52.512c23.872-25.12 23.52-65.728-0.736-90.464l-176-184.448C578.272 268.128 562.592 256 545.856 256zM351.968 141.408c-16.32 0-32.64 6.048-45.088 18.208l-50.432 49.216c-12.224 11.936-19.04 27.936-19.2 45.056-0.128 17.152 6.4 33.28 18.464 45.44l179.04 187.104C446.784 498.56 462.848 512 479.968 512c0.032 0 0.096 0 0.16 0 17.088 0 33.12-13.344 45.152-25.376l41.312-44.672c12.512-12.512 12.512-34.432 0-46.912-12.512-12.512-32.736-13.344-45.248-0.832l-41.312 40.896-178.848-180.608 50.4-48.96 74.944 73.344c12.608 12.416 32.8 12.32 45.28-0.288 12.416-12.576 12.32-32.832-0.224-45.248l-74.176-73.408C384.896 147.616 368.416 141.408 351.968 141.408zM512-64C264.96-64 64 136.96 64 384S264.96 832 512 832s448-200.96 448-448S759.04-64 512-64zM512 768C300.256 768 128 595.744 128 384c0-211.744 172.256-384 384-384 211.744 0 384 172.256 384 384C896 595.744 723.744 768 512 768z"  horiz-adv-x="1024" />

    
    <glyph glyph-name="lock" unicode="&#59072;" d="M512 128c-17.664 0-32 14.304-32 32l0 96c0 17.696 14.336 32 32 32s32-14.304 32-32l0-96C544 142.304 529.664 128 512 128zM832-64 192-64c-52.928 0-96 43.072-96 96L96 384c0 52.928 43.072 96 96 96l640 0c52.928 0 96-43.072 96-96l0-352C928-20.928 884.928-64 832-64zM192 416c-17.632 0-32-14.368-32-32l0-352c0-17.664 14.368-32 32-32l640 0c17.664 0 32 14.336 32 32L864 384c0 17.632-14.336 32-32 32L192 416zM736 416c-17.696 0-32 14.336-32 32L704 577.984C704 686.752 601.76 768 510.336 768 416.768 768 320 697.088 320 578.432L320 448c0-17.664-14.336-32-32-32s-32 14.336-32 32L256 578.432C256 737.152 385.312 832 510.336 832 632.224 832 768 727.68 768 577.984L768 448C768 430.336 753.696 416 736 416z"  horiz-adv-x="1024" />

    
    <glyph glyph-name="unlock" unicode="&#59074;" d="M512 128c-17.664 0-32 14.304-32 32l0 96c0 17.696 14.336 32 32 32s32-14.304 32-32l0-96C544 142.304 529.664 128 512 128zM832-64 192-64c-52.928 0-96 43.072-96 96L96 416c0 52.928 43.072 96 96 96l640 0c52.928 0 96-43.072 96-96l0-384C928-20.928 884.928-64 832-64zM192 448c-17.632 0-32-14.368-32-32l0-384c0-17.664 14.368-32 32-32l640 0c17.664 0 32 14.336 32 32L864 416c0 17.632-14.336 32-32 32L192 448zM288 480c-17.664 0-32 14.336-32 32L256 576.672c0 160.064 135.392 255.744 266.304 255.744 100.672 0 198.72-59.872 244.032-148.992 8-15.744 1.728-35.008-14.016-43.04-15.776-8-35.04-1.696-43.04 14.016-34.656 68.16-109.792 113.984-186.976 113.984C422.848 768.416 320 696.704 320 576.672L320 512C320 494.336 305.664 480 288 480z"  horiz-adv-x="1024" />

    
    <glyph glyph-name="vip" unicode="&#59075;" d="M512-64.032C264.96-64.032 64 136.96 64 384S264.96 832 512 832 960.032 631.04 960.032 384 759.04-64.032 512-64.032zM512 768C300.256 768 128 595.744 128 384s172.256-384.032 384-384.032S896.032 172.256 896.032 384 723.744 768 512 768zM416 158.24c-4.672 0-9.344 0.992-13.696 3.072C391.136 166.624 384 177.888 384 190.24L384 512l-64 0c-17.664 0-32 14.336-32 32s14.336 32 32 32l96 0c17.664 0 32-14.336 32-32l0-286.08L679.68 448 672 448c-17.696 0-32 14.336-32 32s14.304 32 32 32l97.12 0c13.536 0 25.568-8.512 30.112-21.216 4.576-12.736 0.64-26.944-9.824-35.52l-353.152-289.76C430.464 160.704 423.264 158.24 416 158.24z"  horiz-adv-x="1024" />

    
    <glyph glyph-name="weibo" unicode="&#59076;" d="M728.864 398.944c-12.48 3.712-29.152 6.752-22.624 22.944 14.144 35.136 15.744 73.792 0.416 95.424-28.736 40.576-99.36 29.472-189.44-7.808 0 0.064-28.288-12.224-21.056 9.952 13.856 44.032 11.776 80.896-9.792 102.208-48.896 48.352-178.88-1.824-290.368-111.936C112.48 427.2 64 339.744 64 264.16c0-144.608 187.68-232.544 371.296-232.544 240.704 0 395.776 139.104 395.776 248.832C831.072 346.72 779.616 383.392 728.864 398.944zM435.808 83.424c-146.528-14.272-272.992 51.168-282.496 146.208-9.504 95.04 101.568 183.68 248.096 197.984 146.528 14.304 273.024-51.136 282.496-146.144C693.376 186.4 582.336 97.76 435.808 83.424zM897.632 660.864c-60.096 62.496-148.704 86.304-230.496 69.984l-0.032 0c-18.944-3.808-30.976-21.28-26.944-38.976 4.032-17.728 22.656-29.056 41.568-25.28 58.176 11.584 121.152-5.376 163.872-49.76 42.656-44.384 54.272-104.928 35.968-157.984l0 0c-5.952-17.28 4.128-35.776 22.592-41.376 18.368-5.568 38.144 3.872 44.096 21.12 0 0.032 0 0.096 0 0.096C973.92 513.344 957.728 598.432 897.632 660.864M807.904 578.912c-29.024 31.2-71.872 43.04-111.456 34.88-16.16-3.328-26.464-18.752-23.008-34.432 3.456-15.616 19.36-25.632 35.488-22.24l0-0.032c19.328 3.968 40.32-1.824 54.496-17.024 14.208-15.264 18.016-36.032 11.936-54.272l0.032 0c-5.056-15.232 3.52-31.584 19.264-36.512 15.744-4.864 32.608 3.424 37.696 18.688C844.768 505.248 836.992 547.712 807.904 578.912M484.928 391.936C413.12 410.24 331.968 375.2 300.8 313.28c-31.744-63.168-1.056-133.28 71.488-156.192 75.136-23.712 163.68 12.64 194.464 80.8C597.12 304.512 559.2 373.152 484.928 391.936zM430.08 233.472c-14.592-22.336-45.824-32.128-69.376-21.824-23.2 10.144-30.048 36.096-15.456 57.856 14.432 21.696 44.608 31.36 67.968 21.952C436.864 281.792 444.416 256.032 430.08 233.472zM478.176 292.672c-5.28-8.64-16.928-12.832-26.08-9.216-8.992 3.552-11.808 13.248-6.688 21.728 5.248 8.448 16.48 12.608 25.44 9.184C479.936 311.2 483.2 301.408 478.176 292.672z"  horiz-adv-x="1024" />

    
    <glyph glyph-name="activity" unicode="&#59077;" d="M719.328 256c-64.608 0-121.44 28.736-133.12 35.072C575.776 295.232 511.52 320 460 320c-46.688 0-108-21.312-127.68-29.536-9.888-4.128-21.152-3.04-30.08 2.912C293.344 299.328 288 309.312 288 320L288 736c0 13.024 7.904 24.736 19.936 29.632C311.392 767.04 393.248 800 463.328 800c70.656 0 146.464-33.344 149.664-34.752 1.184-0.512 2.336-1.12 3.456-1.792C616.832 763.232 663.424 736 716.672 736c52.992 0 98.208 27.04 98.656 27.328 9.952 5.952 22.24 6.208 32.352 0.544C857.728 758.176 864 747.552 864 736l0-416c0-10.848-5.504-20.928-14.592-26.848C847.104 291.616 791.328 256 719.328 256zM460 384c68.928 0 148.928-33.056 152.32-34.464 1.216-0.512 2.4-1.088 3.552-1.76C616.32 347.52 665.728 320 719.328 320c33.984 0 63.776 11.2 80.672 19.136L800 686.688C777.28 678.88 748.288 672 716.672 672c-64.768 0-119.552 28.864-131.008 35.328C575.808 711.488 515.648 736 463.328 736 424.224 736 377.856 722.4 352 713.6l0-348.48C381.92 374.272 422.592 384 460 384zM544-32 192-32 192 768c0 17.664 14.336 32 32 32s32-14.336 32-32l0-736 288 0c17.696 0 32-14.304 32-32S561.696-32 544-32zM224-32 160.992-32c-17.664 0-32 14.304-32 32s14.336 32 32 32L224 32c17.664 0 32-14.304 32-32S241.664-32 224-32z"  horiz-adv-x="1024" />

    
    <glyph glyph-name="big" unicode="&#59079;" d="M800 544l-32 0c-70.592 0-128-57.408-128-128l0-64c0-70.592 57.408-128 128-128l32 0c23.424 0 45.088 6.784 64 17.792l0-49.408C864 157.504 842.016 128 816 128L736 128l0-64 80 0c61.76 0 112 57.6 112 128.416L928 352l0 64C928 486.592 870.592 544 800 544zM800 288l-32 0c-35.296 0-64 28.704-64 64l0 64c0 35.296 28.704 64 64 64l32 0c35.296 0 64-28.704 64-64l0-64C864 316.704 835.296 288 800 288zM480 576l64 0 0-352-64 0 0 352ZM480 672l64 0 0-64-64 0 0 64ZM256 544 160 544 160 672 96 672l0-257.632 0-64.672L96 224l38.752 0L160 224l96 0c70.592 0 128 56.384 128 125.696l0 64.672C384 485.856 326.592 544 256 544zM320 349.696C320 315.104 291.904 288 256 288L160 288c0 0 0 36.608 0 64l0 62.368L160 480l96 0c34.688 0 64-30.048 64-65.632L320 349.696z"  horiz-adv-x="1024" />

    
    <glyph glyph-name="friendaddfill" unicode="&#59081;" d="M864 96h-64v60.8c0 19.2-12.8 32-32 32s-32-12.8-32-32v-60.8h-64c-19.2 0-32-12.8-32-32s12.8-32 32-32h64v-67.2c0-19.2 12.8-32 32-32s32 12.8 32 32v67.2h64c19.2 0 32 12.8 32 32s-12.8 32-32 32zM704-35.2v35.2h-32c-35.2 0-64 28.8-64 64s28.8 64 64 64h32v28.8c0 25.6 12.8 44.8 32 54.4-22.4 22.4-64 38.4-86.4 48 86.4 51.2 147.2 144 147.2 249.6 0 160-128 288-288 288s-288-128-288-288c0-108.8 60.8-201.6 147.2-249.6-121.6-48-214.4-153.6-240-288-3.2-9.6 0-19.2 6.4-25.6 6.4-6.4 16-12.8 25.6-12.8h553.6c-3.2 9.6-9.6 22.4-9.6 32z"  horiz-adv-x="1024" />

    
    <glyph glyph-name="friendadd" unicode="&#59082;" d="M800 508.8c0 160-128 288-288 288s-288-128-288-288c0-105.6 57.6-201.6 147.2-249.6-121.6-48-214.4-153.6-240-288-3.2-16 6.4-35.2 25.6-38.4h6.4c16 0 28.8 9.6 32 25.6 28.8 150.4 160 259.2 313.6 262.4h6.4c156.8 0 284.8 131.2 284.8 288zM288 508.8c0 124.8 99.2 224 224 224s224-99.2 224-224c0-121.6-99.2-220.8-220.8-224h-9.6c-121.6 6.4-217.6 105.6-217.6 224zM864 96h-64v64c0 19.2-12.8 32-32 32s-32-12.8-32-32v-64h-64c-19.2 0-32-12.8-32-32s12.8-32 32-32h64v-64c0-19.2 12.8-32 32-32s32 12.8 32 32v64h64c19.2 0 32 12.8 32 32s-12.8 32-32 32z"  horiz-adv-x="1024" />

    
    <glyph glyph-name="friendfamous" unicode="&#59083;" d="M777.6 512c0 160-128 288-288 288s-288-128-288-288c0-108.8 57.6-201.6 147.2-249.6-121.6-48-214.4-153.6-240-288-3.2-16 6.4-35.2 25.6-38.4h6.4c16 0 28.8 9.6 32 25.6 28.8 150.4 160 259.2 313.6 262.4h6.4c156.8 0 284.8 128 284.8 288zM265.6 512c0 124.8 99.2 224 224 224s224-99.2 224-224c0-121.6-99.2-220.8-220.8-224h-9.6c-121.6 3.2-217.6 102.4-217.6 224zM966.4 153.6c-3.2 12.8-12.8 19.2-25.6 22.4l-83.2 12.8-38.4 80c-6.4 12.8-16 19.2-28.8 19.2s-22.4-6.4-28.8-19.2l-38.4-80-83.2-12.8c-12.8-3.2-22.4-9.6-25.6-22.4s0-22.4 6.4-32l60.8-60.8-16-89.6c-3.2-12.8 3.2-25.6 12.8-32 9.6-6.4 22.4-6.4 35.2-3.2l73.6 41.6 73.6-41.6c6.4-3.2 9.6-3.2 16-3.2s12.8 3.2 19.2 6.4c9.6 6.4 16 19.2 12.8 32l-12.8 89.6 60.8 60.8c9.6 9.6 12.8 22.4 9.6 32zM841.6 92.8c-6.4-6.4-9.6-16-9.6-28.8l6.4-38.4-32 16c-6.4 3.2-9.6 3.2-16 3.2s-9.6 0-16-3.2l-32-16 6.4 38.4c3.2 9.6 0 19.2-9.6 28.8l-28.8 28.8 38.4 6.4c9.6 0 19.2 9.6 25.6 19.2l16 32 16-32c3.2-9.6 12.8-16 25.6-19.2l38.4-6.4-28.8-28.8z"  horiz-adv-x="1024" />

    
    <glyph glyph-name="friend" unicode="&#59084;" d="M668.8 512c0 140.8-115.2 256-256 256s-256-115.2-256-256c0-92.8 51.2-172.8 124.8-217.6-105.6-44.8-192-137.6-217.6-256-3.2-16 6.4-35.2 22.4-38.4h6.4c16 0 28.8 9.6 32 25.6 32 134.4 153.6 233.6 288 233.6h3.2c140.8 0 252.8 115.2 252.8 252.8zM220.8 512c0 105.6 86.4 192 192 192s192-86.4 192-192-86.4-192-192-192-192 86.4-192 192zM732.8 352c-19.2 0-32-16-28.8-35.2 0-16 16-28.8 32-28.8h3.2c105.6 6.4 188.8 96 188.8 201.6s-83.2 192-185.6 201.6c-19.2 0-32-12.8-35.2-28.8 0-19.2 12.8-32 28.8-35.2 70.4-6.4 128-67.2 128-137.6 0-73.6-57.6-134.4-131.2-137.6zM960 137.6c-9.6 41.6-41.6 92.8-80 118.4-16 9.6-35.2 3.2-44.8-9.6-9.6-16-3.2-35.2 9.6-44.8 22.4-12.8 44.8-51.2 51.2-76.8 3.2-16 16-25.6 32-25.6h6.4c19.2 3.2 28.8 19.2 25.6 38.4zM620.8 256l-19.2 12.8c-16 9.6-35.2 6.4-44.8-9.6s-6.4-35.2 9.6-44.8l19.2-12.8c57.6-41.6 102.4-105.6 118.4-176 3.2-16 16-25.6 32-25.6h6.4c16 3.2 28.8 22.4 22.4 38.4-22.4 89.6-73.6 166.4-144 217.6z"  horiz-adv-x="1024" />

    
    <glyph glyph-name="goods" unicode="&#59085;" d="M934.4 608c0 16-16 28.8-32 28.8h-137.6c-25.6 108.8-124.8 188.8-240 188.8h-19.2c-115.2 0-214.4-80-240-188.8h-137.6c-19.2 3.2-32-9.6-32-28.8l-28.8-553.6v-3.2c6.4-67.2 60.8-115.2 124.8-115.2h649.6c64 0 118.4 51.2 121.6 115.2v3.2l-28.8 553.6zM838.4 0h-646.4c-28.8 0-54.4 22.4-57.6 54.4l22.4 521.6h102.4v-134.4c-19.2-9.6-32-32-32-54.4 0-35.2 28.8-64 64-64s64 28.8 64 64c0 22.4-12.8 44.8-32 54.4v140.8c0 102.4 83.2 182.4 182.4 182.4h19.2c102.4 0 182.4-83.2 182.4-182.4v-144c-19.2-9.6-32-32-32-54.4 0-35.2 28.8-64 64-64s64 28.8 64 64c0 22.4-12.8 44.8-32 54.4v137.6h99.2l25.6-521.6c0-32-25.6-54.4-57.6-54.4zM611.2 640h-192c-19.2 0-32-12.8-32-32s12.8-32 32-32h192c19.2 0 32 12.8 32 32s-12.8 32-32 32z"  horiz-adv-x="1024" />

    
    <glyph glyph-name="selection" unicode="&#59086;" d="M742.912 173.92c3.84 3.136 8.064 5.76 11.776 9.056 7.424 6.624 11.36 16.352 10.688 26.272l-3.68 50.976 50.528 7.776c9.92 1.536 18.56 7.616 23.296 16.448 29.184 53.984 44.544 115.104 44.544 176.8 0 4.16-0.256 8.256-0.544 12.32l-0.32 4.768c-0.48 9.984-5.6 19.136-13.792 24.8l-42.144 29.12 25.984 45.472c4.896 8.64 5.536 19.072 1.696 28.256-25.984 61.504-68.416 115.072-122.848 154.976-8.16 5.984-18.656 7.744-28.352 4.768l-49.024-15.136L631.68 799.04c-3.648 9.344-11.488 16.448-21.152 19.136-65.504 18.336-131.52 18.336-196.992 0-9.696-2.688-17.536-9.792-21.184-19.136l-18.976-48.448-49.056 15.136C314.656 768.704 304.128 766.944 295.968 760.96 241.504 721.088 199.04 667.488 173.152 606.016 169.28 596.832 169.888 586.368 174.816 577.728l25.92-45.472-42.144-29.12c-8.256-5.696-13.344-14.912-13.792-24.896L144.512 473.28C144.256 469.28 144 465.312 144 461.248c0-61.728 15.392-122.88 44.512-176.8 4.768-8.864 13.376-14.912 23.296-16.448l50.528-7.776-3.712-50.976c-0.736-9.952 3.232-19.648 10.688-26.272 3.552-3.168 7.584-5.664 11.264-8.672l-85.824-140.448c-7.712-12.672-7.2-28.128 1.344-39.36 8.544-11.2 23.328-15.808 37.472-11.776l79.616 22.336 49.408-57.024c7.136-8.192 16.864-12.672 27.008-12.672 2.432 0 4.896 0.288 7.424 0.8 12.672 2.72 22.56 12.064 26.464 25.024l40.928 136.896c3.904 1.472 7.616 3.552 10.752 6.496L512 138.912l36.8-34.272c6.016-5.6 13.824-8.64 21.856-8.64 1.92 0 3.712 0.16 5.6 0.512 40.16 7.136 78.272 21.696 113.696 41.504L736 64.864 716.288 70.4c-15.392 4.416-32.768-0.736-43.328-12.8l-27.296-31.328-4.896 13.6c-5.952 16.672-24.256 25.408-40.896 19.296-16.672-5.984-25.28-24.32-19.296-40.928l21.12-58.752c4.448-12.32 14.496-21.12 27.008-23.456 2.112-0.416 4.352-0.608 6.496-0.608 10.176 0 20 4.512 27.072 12.672l49.856 57.088 80.224-22.368c14.496-4.032 29.248 0.672 37.76 11.968 8.512 11.36 8.832 26.912 0.832 39.552L742.912 173.92zM376.992 29.216l-24.576 28.352c-10.496 12.096-27.968 17.28-43.168 12.896L288.576 64.64l44.992 73.664c21.408-12.032 43.648-22.528 67.04-30.016L376.992 29.216zM533.824 206.016c-12.288 11.424-31.328 11.424-43.616 0l-46.592-43.328c-43.712 10.144-84.672 30.016-120 58.208l4.64 64.16c1.216 16.64-10.56 31.392-27.04 33.952L237.76 328.736c-19.264 40.608-29.504 85.408-29.76 130.72l53.28 36.768c13.632 9.44 17.824 27.744 9.6 42.176L238.496 595.264c19.456 40.224 47.712 75.904 82.784 104.416l61.6-19.008C398.976 675.648 416 684 422.144 699.584l23.84 60.832c44.192 10.08 87.84 10.08 132.064 0l23.872-60.832C608 684 625.088 675.712 641.12 680.672l61.6 19.008c35.104-28.512 63.328-64.192 82.784-104.416l-32.416-56.832c-8.224-14.432-4.032-32.768 9.632-42.176l53.28-36.768c-0.256-45.28-10.496-90.112-29.76-130.72l-63.456-9.792c-16.48-2.528-28.256-17.312-27.04-33.952l4.64-64.16c-35.296-28.192-76.288-48.064-119.936-58.208L533.824 206.016zM512 241.984c-122.4 0-222.016 99.552-222.016 222.016S389.6 686.016 512 686.016s222.016-99.584 222.016-222.016S634.4 241.984 512 241.984zM512 622.016c-87.136 0-158.016-70.88-158.016-158.016s70.88-158.016 158.016-158.016c87.136 0 158.016 70.848 158.016 158.016S599.136 622.016 512 622.016z"  horiz-adv-x="1024" />

    
    <glyph glyph-name="explore" unicode="&#59090;" d="M960.224 66.944l-42.688 417.376c-5.664 47.936-46.752 94.656-93.792 106.432l-4.416 0.864C807.008 594.72 800 611.04 800 640.128l0 64C800 757.056 758.432 800 705.504 800l-32.032 0C620.544 800 576 764.224 576 720.128l0-48c0-17.664 14.304-32 32-32s32 14.336 32 32l0 48C640 725.632 653.952 736 673.472 736l32.032 0C723.168 736 736 721.76 736 704.128l0-64c0-81.568 42.752-104.288 67.968-110.624l4.032-0.896c21.28-5.344 43.232-30.016 45.728-51.296L886.368 160l-203.136 0-9.984 99.552C668.192 310.56 622.336 352 571.072 352l-124.8 0c-34.208 0-90.752-41.376-95.84-92.448L340.48 160 136.704 160l20.192 320c2.848 24.288 25.376 56.352 47.392 67.328l12.64 6.72C258.528 574.816 288 624.48 288 672.096l0 32C288 721.76 303.776 736 321.408 736l32 0C371.072 736 384 721.76 384 704.096l0-60.8C384 588.608 421.312 544 465.408 544l112 0c17.696 0 32 14.336 32 32s-14.304 32-32 32l-112 0C462.016 608 448 620.928 448 643.328l0 60.8C448 757.056 406.368 800 353.408 800l-32 0C268.48 800 224 757.056 224 704.096l0-32c0-23.488-15.584-50.752-35.744-60.832l-13.024-6.72C133.76 583.872 98.624 533.536 93.024 485.76L66.688 67.424c-3.04-25.728 4.8-51.296 21.408-69.984C104.704-21.216 129.152-32 155.072-32l137.568 0c51.264 0 97.12 41.568 102.208 92.576l19.264 192.608C415.648 268.672 439.584 288 446.272 288l124.8 0c18.688 0 36.672-16.224 38.528-34.816l19.264-192.672C633.952 9.536 679.808-32 731.072-32l140.8 0c25.92 0 50.272 10.784 66.912 29.472S963.2 41.728 960.224 66.944zM292.64 32 155.072 32c-7.744 0-14.528 2.88-19.072 8-4.544 5.088-6.56 12.192-5.472 21.632L132.672 96l201.376 0-2.88-29.056C329.312 48.352 311.328 32 292.64 32zM890.976 40C886.4 34.88 879.616 32 871.872 32l-140.8 0c-18.656 0-36.672 16.352-38.528 34.944L689.632 96l203.296 0 3.68-36.096C897.504 52.192 895.488 45.088 890.976 40z"  horiz-adv-x="1024" />

    
    <glyph glyph-name="present" unicode="&#59091;" d="M929.248 608l-75.616 0c18.688 0 35.52 37.376 43.168 62.016 9.376 30.432 3.648 60.352-16.576 86.944-1.376 1.824-2.944 3.392-4.672 4.864-97.28 83.168-228.96 3.04-282.496-36.288-14.432-10.016-18.08-29.824-8.16-44.352 9.984-14.624 29.888-18.368 44.48-8.384 0.288 0.192 2.624 1.888 2.944 2.08 30.592 22.528 134.496 91.2 198.88 40.448 6.016-8.96 7.328-17.376 4.448-26.848-7.616-24.64-39.68-47.36-55.2-52.544-60.192-22.592-79.808-24.896-104.992-26.72C673.344 609.056 671.584 608 669.664 608l-88.416 0c-1.408 0-2.528 4.096-4.544 5.952-32.992 30.752-111.2 103.008-126.72 113.376C332.448 807.936 225.664 820.48 157.088 761.824c-1.728-1.472-3.296-3.2-4.672-4.992C132.16 730.208 126.432 700.448 135.84 670.016 143.456 645.344 160.32 608 178.88 608L97.344 608C79.68 608 64 592.832 64 575.168l0-160c0-17.664 0-32 32-32l0-312.896C96 14.464 138.624-32 189.344-32l645.28 0C885.92-32 928 15.392 928 70.272l0 312.896c32 0 32 14.336 32 32l0 160C960 592.832 946.944 608 929.248 608zM357.216 609.184C332 611.04 312.32 613.536 251.04 636.512 236.672 641.312 204.608 663.968 196.992 688.576 194.048 698.048 195.424 706.4 201.408 715.36c64.064 50.432 169.6-11.264 214.656-42.144C422.4 668.672 453.664 640 489.376 608l-126.368 0C361.056 608 359.296 609.024 357.216 609.184zM896 544l0-96L131.968 448C131.04 448 128 446.848 128 446.752L128 544 896 544zM834.624 32 189.344 32C172.832 32 160 52.672 160 70.272L160 384l704 0 0-313.728C864 51.168 850.368 32 834.624 32z"  horiz-adv-x="1024" />

    
    <glyph glyph-name="squarecheckfill" unicode="&#59092;" d="M832 800 192 800C139.072 800 96 756.928 96 704l0-640c0-52.928 43.072-96 96-96l640 0c52.928 0 96 43.072 96 96L928 704C928 756.928 884.928 800 832 800zM727.232 457.568l-256.224-259.008c-0.064-0.064-0.192-0.096-0.256-0.192-0.096-0.064-0.096-0.192-0.192-0.256-2.048-1.984-4.576-3.2-6.944-4.544-1.184-0.672-2.144-1.696-3.392-2.176-3.84-1.536-7.904-2.336-11.968-2.336-4.096 0-8.224 0.8-12.096 2.4-1.28 0.544-2.304 1.632-3.52 2.304-2.368 1.344-4.832 2.528-6.88 4.544-0.064 0.064-0.096 0.192-0.16 0.256-0.064 0.096-0.192 0.096-0.256 0.192l-126.016 129.504c-12.32 12.672-12.032 32.928 0.64 45.248 12.672 12.288 32.896 12.064 45.248-0.64l103.264-106.112 233.28 235.808c12.416 12.576 32.704 12.672 45.248 0.256C739.52 490.368 739.648 470.112 727.232 457.568z"  horiz-adv-x="1024" />

    
    <glyph glyph-name="square" unicode="&#59093;" d="M832-32 192-32c-52.928 0-96 43.072-96 96L96 704c0 52.928 43.072 96 96 96l640 0c52.928 0 96-43.072 96-96l0-640C928 11.072 884.928-32 832-32zM192 736C174.368 736 160 721.632 160 704l0-640c0-17.664 14.368-32 32-32l640 0c17.664 0 32 14.336 32 32L864 704c0 17.632-14.336 32-32 32L192 736z"  horiz-adv-x="1024" />

    
    <glyph glyph-name="squarecheck" unicode="&#59094;" d="M726.976 502.816c-12.544 12.448-32.832 12.32-45.248-0.256l-233.28-235.808-103.264 106.112c-12.352 12.704-32.608 12.928-45.248 0.64-12.672-12.32-12.96-32.608-0.64-45.248l126.016-129.504c0.064-0.096 0.192-0.096 0.256-0.192 0.064-0.064 0.096-0.192 0.16-0.256 2.016-1.984 4.512-3.2 6.88-4.544 1.248-0.672 2.24-1.792 3.52-2.304 3.872-1.6 8-2.4 12.096-2.4 4.064 0 8.128 0.8 11.968 2.336 1.248 0.512 2.208 1.536 3.392 2.176 2.4 1.344 4.896 2.528 6.944 4.544 0.064 0.064 0.096 0.192 0.192 0.256 0.064 0.096 0.16 0.128 0.256 0.192l256.224 259.008C739.648 470.112 739.52 490.368 726.976 502.816zM832-32 192-32c-52.928 0-96 43.072-96 96L96 704c0 52.928 43.072 96 96 96l640 0c52.928 0 96-43.072 96-96l0-640C928 11.072 884.928-32 832-32zM192 736C174.368 736 160 721.632 160 704l0-640c0-17.664 14.368-32 32-32l640 0c17.664 0 32 14.336 32 32L864 704c0 17.632-14.336 32-32 32L192 736z"  horiz-adv-x="1024" />

    
    <glyph glyph-name="round" unicode="&#59095;" d="M512-64C264.96-64 64 136.96 64 384S264.96 832 512 832s448-200.96 448-448S759.04-64 512-64zM512 768C300.256 768 128 595.744 128 384c0-211.744 172.256-384 384-384 211.744 0 384 172.256 384 384C896 595.744 723.744 768 512 768z"  horiz-adv-x="1024" />

    
    <glyph glyph-name="roundaddfill" unicode="&#59096;" d="M828.704 699.424c-84.608 84.192-197.056 130.56-316.704 130.56s-232.128-46.368-316.736-130.56C110.624 615.2 64 503.168 64 384c0-119.2 46.624-231.2 131.232-315.424 84.608-84.192 197.088-130.56 316.736-130.56s232.128 46.368 316.704 130.56c84.672 84.256 131.296 196.288 131.264 315.456C959.968 503.2 913.376 615.2 828.704 699.424zM736 352l-192 0 0-192c0-17.696-14.336-32-32-32s-32 14.304-32 32l0 192L288 352c-17.664 0-32 14.336-32 32s14.336 32 32 32l192 0L480 608c0 17.664 14.336 32 32 32s32-14.336 32-32l0-192 192 0c17.696 0 32-14.336 32-32S753.696 352 736 352z"  horiz-adv-x="1024" />

    
    <glyph glyph-name="roundadd" unicode="&#59097;" d="M512-62.016c-119.648 0-232.128 46.368-316.736 130.56C110.624 152.8 64 264.8 64 384c0 119.168 46.624 231.2 131.232 315.424 84.608 84.192 197.088 130.56 316.736 130.56s232.128-46.368 316.704-130.56c84.672-84.224 131.264-196.256 131.264-315.392 0.032-119.2-46.592-231.232-131.264-315.456C744.128-15.616 631.648-62.016 512-62.016zM512 766.016c-102.624 0-199.072-39.744-271.584-111.936C167.936 581.952 128 486.016 128 384c0-102.016 39.904-197.952 112.384-270.048 72.512-72.192 168.96-111.936 271.584-111.936 102.592 0 199.072 39.744 271.584 111.936 72.48 72.16 112.416 168.064 112.384 270.08 0 102.016-39.904 197.92-112.384 270.016C711.072 726.24 614.592 766.016 512 766.016zM736 416l-192 0L544 608c0 17.664-14.336 32-32 32s-32-14.336-32-32l0-192L288 416c-17.664 0-32-14.336-32-32s14.336-32 32-32l192 0 0-192c0-17.696 14.336-32 32-32s32 14.304 32 32l0 192 192 0c17.696 0 32 14.336 32 32S753.696 416 736 416z"  horiz-adv-x="1024" />

    
    <glyph glyph-name="add" unicode="&#59098;" d="M800 416l-256 0L544 672c0 17.664-14.336 32-32 32s-32-14.336-32-32l0-256L224 416c-17.664 0-32-14.336-32-32s14.336-32 32-32l256 0 0-256c0-17.696 14.336-32 32-32s32 14.304 32 32l0 256 256 0c17.696 0 32 14.336 32 32S817.696 416 800 416z"  horiz-adv-x="1024" />

    
    <glyph glyph-name="notificationforbidfill" unicode="&#59099;" d="M192 576c-54.4 0-96-41.6-96-92.8v-195.2c0-54.4 41.6-96 96-96h83.2l182.4-188.8c22.4-22.4 44.8-35.2 67.2-35.2 6.4 0 12.8 0 19.2 3.2 19.2 9.6 32 28.8 32 51.2v224l-342.4 329.6h-41.6zM950.4 86.4l-57.6 54.4c41.6 73.6 67.2 156.8 67.2 243.2 0 115.2-41.6 227.2-118.4 316.8-12.8 12.8-32 16-44.8 3.2-12.8-12.8-16-32-3.2-44.8 64-76.8 102.4-176 102.4-275.2 0-70.4-19.2-137.6-51.2-195.2l-92.8 89.6c9.6 35.2 16 70.4 16 105.6 0 73.6-22.4 144-67.2 204.8-9.6 16-28.8 19.2-44.8 6.4s-19.2-28.8-6.4-44.8c35.2-48 54.4-108.8 54.4-166.4 0-19.2-3.2-38.4-6.4-54.4l-121.6 115.2v297.6c0 25.6-12.8 44.8-32 51.2-25.6 9.6-57.6 0-86.4-32l-105.6-105.6-137.6 134.4c-12.8 12.8-32 12.8-44.8 0-12.8-12.8-12.8-32 0-44.8l736-704c6.4-6.4 12.8-9.6 22.4-9.6s16 3.2 22.4 9.6c12.8 12.8 12.8 32 0 44.8z"  horiz-adv-x="1024" />

    
    <glyph glyph-name="explorefill" unicode="&#59101;" d="M963.328 67.424l-48.992 416.864c-5.664 47.904-46.752 94.656-93.792 106.432l-4.416 0.864C811.552 592.768 800 595.488 800 640.128l0 64C800 757.056 758.432 800 705.504 800l-35.232 0C617.344 800 576 764.256 576 720.128l0-48c0-1.728-0.736-3.424-0.448-5.12 1.632-10.176 1.472-38.144-8.64-49.984C565.216 615.008 560.256 608 545.44 608l-80 0C459.936 608 448 623.776 448 643.328l0 64C448 760.256 406.368 800 353.44 800l-32 0C268.512 800 224 760.256 224 707.328l0-32C224 652.16 205.888 621.696 185.056 611.296L172.064 604.544c-41.504-20.672-76.672-71.008-82.24-118.752L63.488 67.424c-3.04-25.728 4.8-51.296 21.44-69.984S125.984-32 151.872-32l160 0c51.264 0 97.12 41.568 102.208 92.576l19.264 192.608c1.728 17.28 18.56 34.848 22.464 34.848l96.128 0c18.688 0 36.672-16.224 38.528-34.816l19.264-192.672C614.816 9.536 660.672-32 711.936-32l163.136 0c25.92 0 50.272 10.784 66.912 29.472S966.368 41.728 963.328 67.424zM352 96 128 96c-17.696 0-32 14.304-32 32s14.304 32 32 32l224 0c17.696 0 32-14.304 32-32S369.696 96 352 96zM896 96l-224 0c-17.696 0-32 14.304-32 32s14.304 32 32 32l224 0c17.696 0 32-14.304 32-32S913.696 96 896 96z"  horiz-adv-x="1024" />

    
    <glyph glyph-name="fold" unicode="&#59102;" d="M887.328 278.848 533.952 628.992c-0.512 0.512-1.216 0.672-1.76 1.152-0.128 0.128-0.16 0.32-0.288 0.448-12.576 12.416-32.832 12.352-45.28-0.192L136.512 277.056c-12.448-12.576-12.352-32.8 0.192-45.248 6.24-6.176 14.4-9.28 22.528-9.28 8.224 0 16.48 3.168 22.72 9.472l327.84 330.816 332.48-329.408c6.24-6.176 14.368-9.28 22.528-9.28 8.256 0 16.48 3.168 22.72 9.472C899.968 246.144 899.872 266.4 887.328 278.848z"  horiz-adv-x="1024" />

    
    <glyph glyph-name="game" unicode="&#59103;" d="M204.896 32.896c-3.456 0-6.912 0.128-10.4 0.416-107.776 8.832-179.584 169.792-163.488 366.4C47.36 599.648 141.024 744.256 249.44 734.944c48.384-3.968 81.92-42.912 105.76-76.416 10.24-14.4 6.88-34.368-7.52-44.64C333.248 603.648 313.312 607.072 303.04 621.44c-23.456 32.96-41.6 48.288-58.816 49.728-59.008 4.256-135.584-107.584-149.408-276.672-13.824-169.056 44.192-292.384 104.928-297.344 52.96-4.96 105.024 61.152 132.192 166.848C335.552 278.112 348.288 288 362.912 288l299.904 0c14.432 0 27.072-9.664 30.88-23.552 29.152-106.688 81.216-172.352 135.328-166.848 29.408 2.976 57.28 33.632 76.448 84.096 22.208 58.592 30.016 135.04 21.888 215.232s-31.072 153.536-64.64 206.56c-28.928 45.696-62.016 70.592-91.744 67.2C752.64 668.8 731.36 651.488 711.168 621.952 705.216 613.216 695.328 608 684.736 608L448 608c-17.664 0-32 14.336-32 32s14.336 32 32 32l220.48 0c29.28 37.92 61.568 58.848 96.064 62.336 107.328 10.944 206.592-134.592 226.496-331.008 9.088-89.888-0.032-176.672-25.76-244.384-28.512-75.072-74.592-119.456-129.824-125.056-81.76-8.352-156.128 63.968-196.544 190.08l-251.808 0C350.624 104.448 282.592 32.896 204.896 32.896zM320 448 288 448l0 32c0 17.664-14.336 32-32 32s-32-14.336-32-32l0-32L192 448c-17.664 0-32-14.336-32-32s14.336-32 32-32l32 0 0-32c0-17.696 14.336-32 32-32s32 14.304 32 32l0 32 32 0c17.664 0 32 14.336 32 32S337.664 448 320 448zM800 512m-64 0a2 2 0 1 0 128 0 2 2 0 1 0-128 0ZM672 384m-64 0a2 2 0 1 0 128 0 2 2 0 1 0-128 0Z"  horiz-adv-x="1024" />

    
    </font>
</defs>
</svg>
